<?xml version="1.0" standalone="no"?>
<!DOCTYPE svg PUBLIC "-//W3C//DTD SVG 1.1//EN" "http://www.w3.org/Graphics/SVG/1.1/DTD/svg11.dtd">
<svg xmlns="http://www.w3.org/2000/svg">
  <metadata>CC0 1.0 Universal | simple-icons contributors</metadata>
  <defs>
    <font id="Simple Icons" horiz-adv-x="1200" vert-origin-x="0" vert-origin-y="0">
    <font-face font-family="Simple Icons" units-per-em="1200" ascent="1200" descent="0"/>
    <missing-glyph horiz-adv-x="0"/>
    <glyph glyph-name="1001tracklists" unicode="&#xEA01;" d="M471.1 663.85h-67.5v-190.35h122.9v202.4h147v-216.85h-67.5v-67.5h-67.45v-122.9h122.9v135h134.95v260.2h-67.5v67.5H471.1z m67.5-597.6h122.85v122.9H538.5v-122.9z m-133.8 1000H337.35v-67.5h-67.5v-67.4H202.45v-67.5h-67.5v-334.95H67.5v-67.5H0v-122.85h67.5v-67.5h67.45v-67.45h122.9v392.8h-67.5v212h67.5v67.5h67.45v67.5h67.5V1010.8h414.45v-67.5h67.45v-67.45h67.5v-67.5h67.45v-212h-67.5v-392.8h122.9v67.5h67.5v67.5H1200v122.85h-67.5v67.5h-67.45V863.8h-67.5v67.5h-67.45V998.8h-67.45v67.5h-67.5V1133.7H404.85v-67.5Z" horiz-adv-x="1200"/><glyph glyph-name="1password" unicode="&#xEA02;" d="M525.5 699.35V835.05c0 15.3 12.4 27.7 27.7 27.7h95.55c15.3 0 27.7-12.4 27.7-27.7v-248.4c0-3.8-1.9-6.7-3.8-9.55l-23.9-23.9c-5.75-5.75-5.75-14.35 0-19.1l23.9-23.9c2.85-2.85 3.8-5.75 3.8-9.55v-135.65c0-15.3-12.4-27.7-27.7-27.7h-95.55c-15.3 0-27.7 12.4-27.7 27.7v248.4c0 3.8 1.9 6.7 3.8 9.55l23.9 23.9c5.75 5.75 5.75 14.35 0 19.1l-23.9 23.9C526.45 692.7 525.5 695.55 525.5 699.35zM956.35 600c0 196.8-159.55 356.35-356.35 356.35S243.65 796.8 243.65 600 403.2 243.65 600 243.65 956.35 403.2 956.35 600zM1069.1 600c0-258.9-210.2-468.15-468.15-468.15-258.9 0-468.15 210.2-468.15 468.15 0 258.9 210.2 468.15 468.15 468.15C858.9 1068.15 1069.1 858.9 1069.1 600zM38.2 600c0-310.5 251.25-561.8 561.8-561.8S1161.8 289.5 1161.8 600 910.5 1161.8 600 1161.8 38.2 910.5 38.2 600zM0 600C0 931.55 268.45 1200 600 1200c331.55 0 600-268.45 600-600s-268.45-600-600-600S0 268.45 0 600z" horiz-adv-x="1200"/><glyph glyph-name="3m" unicode="&#xEA03;" d="M945.15 902.3L858.5 548.5l-86.95 353.8h-254.95v-130.65C486 886 378 914.7 277.9 916.3 156 917.95 28.15 864.95 23.45 703.2h168.65c0 48.85 37.35 76.8 79.4 76.15 51.6 0.4 75.4-21.7 76.65-56.2-1.8-29.85-19.35-50.7-76.25-50.7H215.15V555h51.5c29.2 0 69.95-15.95 71.55-57.75 2-49.75-32.6-71.75-75.05-72.15-75.85 2.65-88.15 61.25-88.15 111.5H0c0.75-33.85-7.55-254.55 266.85-252.95 131.45-1.25 223.2 54.25 250.15 130.65v-117.1h172.75v381.6l93.35-381.7h150.9l93.75 381.3v-381.7H1200V902.3h-254.85z m-428.05-353c-21.45 44.65-51.7 64.2-68.8 70.35 35.7 15.95 54.5 37.55 68.8 80.7v-151.05z" horiz-adv-x="1200"/><glyph glyph-name="42" unicode="&#xEA04;" d="M1200 579l-221.4-220.75H1200z m-221.4 220.85l-220.7-220.9v-220.7h220.7V579L1200 799.85V1021.25h-221.4z m-220.7 0l220.7 221.4h-220.7zM0 400.2h442.1v-221.5h220.6V579H221.4l441.3 442.3H442.1L0 578.95z" horiz-adv-x="1200"/><glyph glyph-name="4chan" unicode="&#xEA05;" d="M553.5 759S490.15 1146.05 257.25 1145.15C100.3 1144.55 39 993.8 152.75 959.9c0 0-134.9-48.65-134.9-134.85 0-86.25 213.7-177 535.65-66z m96.55-296.2s45.2-389.55 277.9-399.55c156.8-6.75 225.15 141 113.1 180.2 0 0 137 42.25 141 128.35 4 86.15-205.25 186.85-532 91z m-183.6 77.5s-376.6-109.5-347.6-340.65c19.5-155.7 176.5-198.45 196.5-81.5 0 0 64.5-127.95 150.1-117.55 85.6 10.4 150 233.5 1 539.7z m281.15 123.35s386.35 67.5 383 300.4c-2.3 156.9-153.7 216.65-186.4 102.55 0 0-50 134.3-136.3 133.4-86.2-0.9-174.7-215.6-60.3-536.35z" horiz-adv-x="1200"/><glyph glyph-name="4d" unicode="&#xEA06;" d="M1032 1200v-1200H168V1200h864zM524.5 608.65c-5.75-6.9-294.1-339.45-299.15-345-2.9-3.5-9.35-9.7-9.35-18 0-7.65 9.35-10.4 18-10.4h220v53.35H291.5c24.5 30.5 169 191.2 184.8 211.3v-267c0-9.7-0.25-48.25-2.15-80.1-1.45-21.5-6.5-31.85-33.05-34.65-11.5-1.35-26.65-2.05-33.1-2.05-3.6 0-5.75-4.15-5.75-9 0-4.85 3.6-8.35 11.5-8.35 38.85 0 76.95 2.1 97.1 2.1 61.8 0 132.3-4.85 158.9-4.85 130.9 0 204.95 48.5 237.3 80.35 39.55 38.8 76.95 104.65 76.95 190.5 0 81.1-33.1 137.9-69 173.25-77 78.25-195.65 78.25-284.1 78.25-28 0-51.75-1.35-53.2-1.35-19.4-2.1-17.25 6.2-29.5 6.9-7.9 0.7-12.9-2.75-23.7-15.25z m94.9-22.15c55.4 0 135.95-8.3 201.35-68.6 30.2-27.7 68.35-83.8 68.35-170.4 0-70.7-14.4-133-59.7-170.45-42.45-35.3-90.6-49.2-163.25-49.2-56.1 0-84.15 14.55-93.5 27-5.75 7.65-8.6 34.7-9.3 52 0 4.85-0.75 14.5-0.75 28.4h51.05c12.25 0 15.85 2.75 19.45 9 5 9 12.2 36.75 12.2 43 0 5.5-2.85 8.3-6.5 8.3-4.3 0-13.65-6.95-32.35-6.95h-43.85v279.2c0 7.6 2.9 11.1 8.65 13.85 5.75 2.8 33.8 4.85 48.15 4.85z" horiz-adv-x="1200"/><glyph glyph-name="500px" unicode="&#xEA07;" d="M371.65 749.5A149.7 149.7 0 0 1 222.15 600a149.65 149.65 0 0 1 149.5-149.5 149.7 149.7 0 0 1 149.5 149.5 149.65 149.65 0 0 1-149.5 149.5m0-267.15A117.85 117.85 0 0 0 253.95 600a117.85 117.85 0 0 0 117.7 117.65A117.8 117.8 0 0 0 489.3 600a117.8 117.8 0 0 0-117.65-117.65m323.55 267.15a149.7 149.7 0 0 1-149.5-149.5 149.65 149.65 0 0 1 149.5-149.5 149.7 149.7 0 0 1 149.5 149.5 149.7 149.7 0 0 1-149.5 149.5m0-267.15A117.75 117.75 0 0 0 577.6 600a117.75 117.75 0 0 0 117.6 117.65A117.8 117.8 0 0 0 812.85 600a117.8 117.8 0 0 0-117.65-117.65m-580.5 177.5a105 105 0 0 1-79.85-21.15V717.95h134.35c4.65 0 8 0.85 8 14.6 0 13.45-5.4 14-9 14H19.5c-8.7 0-13.25-7-13.25-14.7v-130.1c0-6.8 4.35-9.15 12.35-10.7 7.05-1.4 11.15-0.6 14.25 2.85l0.3 0.5c14.15 20.4 45 40.2 74.3 36.6 34.95-4.3 63.1-32.2 67-66.35a75.6 75.6 0 0 0-75-84.25c-31.8 0-59.5 20.4-71.1 50.05-1.75 4.4-4.6 7.6-17.15 3.1-11.45-4.15-12.15-9-10.6-13.4a105.5 105.5 0 0 1 98.8-69.3 105.1 105.1 0 0 1 15.25 209M946.9 748c-40.25-3.1-71.7-38.5-71.7-80.5v-133c0-7.75 5.85-9.35 14.65-9.35s14.65 1.55 14.65 9.3v133.4c0 26.2 19.1 48.7 43.4 51.2a48.6 48.6 0 0 0 37.9-12.35 49.2 49.2 0 0 0 16.1-36.5c0-4-1.95-17-10.85-29-6.75-9.1-19.5-19.95-42.2-19.95h-0.45c-5.75 0-10.75-0.25-11.7-14-0.65-9.3-0.6-13.45 7.4-14.5 14.3-2 28.8 0.8 43.25 8.3 24.6 12.8 41.1 37.05 43.05 63.35a78.1 78.1 0 0 1-22.6 61.1 78 78 0 0 1-60.9 22.5m195.95-78l54.25 54.3c2 1.95 6.6 6.6-2.75 16.2-4 4.15-7.65 6.25-10.85 6.25h-0.05a8.15 8.15 0 0 1-6.05-2.9L1123 689.5l-54.3 54.65c-4.4 4.4-9.5 3.35-16.1-3.25-6.75-6.8-7.85-12-3.45-16.4l54.3-54.6-53.2-53.2-0.35-0.35c-1.3-1.25-3.25-3.15-3.25-6.25-0.05-3.15 2.1-6.95 6.3-11.15 3.5-3.55 6.9-5.35 10-5.35 3.45 0 5.7 2.25 6.95 3.5l53.4 53.35 54.5-54.6a8.1 8.1 0 0 1 5.75-2.25h0.1c3.45 0 7.1 2 10.85 5.9 6.1 6.45 7.15 11.8 3 15.95z" horiz-adv-x="1200"/><glyph glyph-name="abbott" unicode="&#xEA08;" d="M1040.6 1080H0v-159.85h988.65V920a51.5 51.5 0 0 0 51.6-51.55v-537.1l-0.2-0.35a51.7 51.7 0 0 0-51.7-51.25H211.5c-28.45 0-51.65 23-51.65 51.65v217c0 28.5 23.2 51.6 51.65 51.6H880V759.85H159.4A159.25 159.25 0 0 1 0 600.5v-321.15A159.4 159.4 0 0 1 159.4 120h881.2A159.35 159.35 0 0 1 1200 279.4V920.65A159.3 159.3 0 0 1 1040.6 1080" horiz-adv-x="1200"/><glyph glyph-name="abbrobotstudio" unicode="&#xEA09;" d="M1199.95 576.75a480.05 480.05 0 0 0-960.15 0h53.5a426.5 426.5 0 1 1 426.65 426.5v53.5A480 480 0 0 0 1200 576.85z m-480 160a160 160 0 1 1 160-160 160 160 0 0 1-160 160z m-100 0l-30 333.6-123.1-96-73 72a233.5 233.5 0 0 1-281 18.5l-101-65a27 27 0 0 1-7.5-37 27 27 0 0 1 37-7.5l100 65.5a182 182 0 0 0 214.5-11l68.5-69-114.5-91.05z" horiz-adv-x="1200"/><glyph glyph-name="abbvie" unicode="&#xEA0A;" d="M1195.15 503.4c0 12.5-7.7 17.35-19.3 17.35h-88.9c-43.5 0-54.1 26.1-56 42.5h120.75c36.7 0 48.3 27.1 48.3 44.5 0 18.35-11.6 44.4-48.3 44.4H1085c-62.8 0-83.05-42.5-83.05-77.25 0-37.7 23.15-77.3 83.05-77.3h110.15v5.8zM1087 629h58c21.25 0 26.05-12.55 26.05-21.25 0-7.75-4.8-21.3-26.05-21.3h-116c2 13.55 14.5 42.5 58 42.5z m-258-122.7c-6.75-8.7-9.65-12.6-16.4-12.6-8.7 0-10.6 3.9-16.4 12.6-13.5 19.3-94.7 144.9-94.7 144.9h11.6c19.3 0 25.1-8.7 30.9-18.35 4.85-7.75 70.5-108.2 70.5-108.2s61.9 95.65 70.55 109.15c5.8 8.7 13.55 17.4 31.9 17.4h8.7s-85-129.5-96.6-144.9z m-609.65-9.7c-14.5 0-20.25 5.8-22.2 17.4l-3.85 16.45c-3.9-6.8-23.2-33.85-65.7-33.85h-43.5C18.35 496.6 0 541.1 0 573.9c0 36.75 22.2 77.3 84.05 77.3h46.4c47.35 0 73.4-27 79.2-60.85 4.85-28 17.4-93.75 17.4-93.75h-7.75z m-95.65 130.5H87c-44.45 0-58.95-28.05-58.95-53.2 0-25.1 14.5-53.15 59-53.15h36.65c46.4 0 59 29 59 53.15 0 21.25-11.65 53.15-59 53.15z m831.9 49.25c6.75 0 13.5 3.85 13.5 12.5v4.85c0 7.75-6.75 12.6-13.5 12.6s-13.5-3.9-13.5-12.6v-4.8c0-8.7 6.75-12.55 13.5-12.55z m-12.55-25.15h5.8c12.55 0 20.3-6.75 20.3-20.3v-134.3h-5.8c-12.6 0-20.3 7.75-20.3 21.25v133.35z m-672.5-22.2c5.85 5.8 23.2 22.2 57 22.2h43.5c65.7 0 85-44.45 85-77.3 0-36.7-23.15-77.3-85-77.3h-46.35c-47.35 0-81.15 30-81.15 77.3v129.5h7.7c13.5 0 19.35-6.8 19.35-18.4v-56z m60.9-108.25h36.7c43.5 0 59 28 59 53.15 0 25.15-14.5 53.15-59 53.15h-36.7c-46.4 0-58.95-29-58.95-53.15-0.95-21.25 11.6-53.15 58.95-53.15z m181.65 108.25c5.8 5.8 23.2 22.2 57 22.2h43.5c65.7 0 84-44.45 84-77.3 0-36.7-22.2-77.3-84-77.3h-46.4c-47.35 0-81.15 30-81.15 77.3v129.5h7.7c13.5 0 19.35-6.8 19.35-18.4v-56z m60.85-108.25h36.75c44.4 0 58.9 28 58.9 53.15 0 25.15-14.5 53.15-58.9 53.15h-36.75c-46.35 0-58.9-29-58.9-53.15-1-21.25 11.55-53.15 58.9-53.15z" horiz-adv-x="1200"/><glyph glyph-name="abletonlive" unicode="&#xEA0B;" d="M0 880v-560h80V880z m160 0v-560h80V880z m160 0v-560H400V880z m160 0v-560h80V880z m160 0V800H1200V880z m0-160v-80H1200V720z m0-160v-80H1200v80z m0-160v-80H1200V400z" horiz-adv-x="1200"/><glyph glyph-name="aboutdotme" unicode="&#xEA0C;" d="M976.8 742.7c-68.65 0-106.65-50.7-114.7-105.8h230.4c-6.25 52.5-43.35 105.75-115.7 105.75m-113-180.85c11.75-57.8 59.65-98.5 126.6-98.5 36.25 0 88.5 13.5 119.2 45.7l58.75-67.5c-53.2-55.5-132.65-71.3-187-71.3-132 0-234.85 95.3-234.85 230.3 0 126.75 94.7 231 228.5 231 129.25 0 225-99 225-230.2v-38.3h-336.15v-1.15z m-324.35-191.5v284.5c0 48.8-21.75 76.8-66.9 76.8-40.7 0-67.75-29.25-85.85-50.35v-312h-117.5v285c0 48.8-20.75 76.6-65.9 76.6-40.65 0-68.75-29.3-85.85-50.3v-312H0V824.75h117.5v-57.5c20 23.15 65.1 63 135.5 63 62.35 0 104.8-26.3 123.85-79.5 26.2 38.05 75 79.5 145.5 79.5 85 0 134.5-50.5 134.5-148.15v-312h-117.65l0.25 0.35z" horiz-adv-x="1200"/><glyph glyph-name="abstract" unicode="&#xEA0D;" d="M600 1200c480.05 0 600-119.95 600-600 0-480.05-119.95-600-600-600-480.05 0-600 119.95-600 600C0 1080.05 119.95 1200 600 1200z m-98.45-928.2c126.2-0.15 230.2 103.5 230.45 229.75 0 126.05-103.7 229.75-229.75 229.75S272.5 627.55 272.5 501.55c0-125.8 103.25-229.4 229.05-229.75z m417.2 9.45V918.75H281.25v-112.35h524.9v-525.15h112.6z m-417.2 337.4a117.15 117.15 0 1 0-0.1-234.3 117.15 117.15 0 0 0 0.1 234.3z" horiz-adv-x="1200"/><glyph glyph-name="academia" unicode="&#xEA0E;" d="M1101.65 141L688.5 1177.05H393.45l52.45-131.15L91.8 141C78.7 95.1 39.35 88.5 0 81.95v-59h341v59C249.2 88.5 196.7 101.65 236.05 200c6.55 6.55 32.8 78.7 65.55 170.5h419.65l59-150.8c6.55-26.25 13.1-45.9 13.1-65.55 0-52.45-45.9-72.15-131.15-72.15v-59H1200v59c-45.9 6.5-85.25 19.65-98.35 59zM341 481.95a18165.15 18165.15 0 0 1 163.95 426.25l170.5-426.25H341z" horiz-adv-x="1200"/><glyph glyph-name="accenture" unicode="&#xEA0F;" d="M1164.85 463L21.7 0v263.15L840 594.5l324.85-131.55z m13.5 268.55L21.65 1200v-263.15l1156.6-468.4V731.5z" horiz-adv-x="1200"/><glyph glyph-name="acclaim" unicode="&#xEA10;" d="M623.4 1190.7a35 35 0 0 1-47.5 0L96.2 740.35a85.25 85.25 0 0 1-23.75-54.75v-179.5c0-17.9 10.7-22.6 23.75-10.35l480.05 450.5a35.25 35.25 0 0 0 47.5 0l480.15-450.5c13.1-12.25 23.75-7.55 23.75 10.35v179.5a85.5 85.5 0 0 1-23.75 54.75z m0-489.15a35.25 35.25 0 0 1-47.5 0l-479.75-450.1a85.25 85.25 0 0 1-23.75-54.7v-179.5c0-17.9 10.7-22.65 23.75-10.4l480.05 450.35a35.05 35.05 0 0 0 47.5 0l480.15-450.4c13.1-12.2 23.75-7.5 23.75 10.4v179.5a85.5 85.5 0 0 1-23.75 54.7Z" horiz-adv-x="1200"/><glyph glyph-name="accusoft" unicode="&#xEA11;" d="M708.87 989.285c-19.12-0.11-200.315-1-218.325-1.11-30.9-0.22-38.8 0.22-43.69-5.45-2.555-3-6.67-8.225 7.675-26.23 14.34-17.9 438.875-561.05 449.655-574.05 13.675-16.565 26.35-22.235 31.9-23.125 8.9-1.335 20.015 3.335 26.015 5.67 5.895 2.335 216.215 89.265 220.775 91.71 7 3.78 6.56 14.45 1.89 22.345-4.67 8-11.45 16.675-15.345 21.45-4 4.785-384.515 459.78-388.515 464.78-7.335 9.225-18.01 18.01-22.235 19.45-4.225 1.45-10.225 4.675-49.8 4.56z m-200.76-256.565s-22.46-3-47.135-28.125c-16.9-17.45-453.88-447.435-456.215-450.77-2.115-3-7.34-8.78-3.225-12.005 2.11-1.665 22.565 5 32.795 8.67 1.445 0 214.655 68.035 214.655 68.035 1 1.11-0.11 0.11 1.11 1-0.665 9.45-1.445 49.02-1.775 51.8-1 7.895 2.78 11.115 5.45 12.9 2.665 1.775 7.665 3.775 7.665 3.775l173.53 63.25c1.11 1.45 165.965 153.19 169.19 156.08v2.11c-1.45 1.11-2 3-3.225 4.335-0.78 0.335-92.82 119.28-92.82 118.945z m92.485-253.12c-5.78-0.445-18.005-1.45-27.12-5.45-9.115-4-272.13-98.935-281.58-102.6-9.45-3.67-21.345-6.67-20.675-14.23 0.33-4.67 3.665-5 8.67-6.56 5-1.665 563.93-126.06 577.385-128.84 13.45-2.78 56.47-14.67 78.815-10.225 12 1.67 17.675 4.67 21.565 7 3.89 2.335 232.11 142.515 235.78 145.185 3.555 2.665 6.115 4.445 6.56 8.78 0.22 1.665-4.56 5.45-9.785 6.56a16080.64 16080.64 0 0 1-55.695 10.895l-15.45 2.775s-215.55-94.485-220.325-96.71c-6-2.78-14.675-5-22.235-4.335-15.785 1.445-27.9 10.335-46.465 31.68l-106.94 138.62s-46.8 7.56-63.365 9.785c-16.565 2.225-53.355 8-59.14 7.67z" horiz-adv-x="1200"/><glyph glyph-name="acer" unicode="&#xEA12;" d="M1197.15 731.8c-4.25 5.65-8.5 9.9-29.75 11.3-5.65 0-22.65 1.45-52.4 1.45-78 0-131.8-24.1-158.75-70.85 7.1 46.75-38.25 70.85-137.45 70.85-116.2 0-189.9-46.75-219.65-141.7-11.3-35.45-11.3-63.8-2.8-86.5h-28.35c-21.25-1.35-49.6-2.8-68-2.8-42.5 0-69.5 7.1-79.4 21.25-8.5 12.75-8.5 36.85 2.85 72.3 18.4 58.1 62.35 83.6 133.2 83.6 36.85 0 72.25-4.25 72.25-4.25 4.25 0 7.1 5.65 7.1 9.9l-1.4 4.25-2.85 19.85c-1.4 12.75-11.35 19.85-28.35 22.65-15.55 1.45-28.35 1.45-45.35 1.45h-1.4c-92.1 0-157.3-31.2-192.7-90.7 12.75 60.95-29.8 90.7-127.55 90.7-55.25 0-95-1.45-117.65-4.25-18.4-2.85-29.75-9.95-34-22.7l-8.5-25.5c-1.4-4.25 1.45-7.1 7.1-7.1 4.25 0 21.25 2.85 49.6 4.3a1240.8 1240.8 0 0 0 83.6 4.25c53.85 0 77.95-14.2 69.45-41.1-1.45-5.7-5.7-9.95-12.75-11.35-51-8.5-92.1-14.2-121.9-18.45-85-11.3-134.6-36.8-147.35-79.35-18.45-58.1 26.9-86.4 136-86.4 53.9 0 100.65 2.8 137.5 9.9 21.25 4.25 32.6 8.5 36.85 22.65l19.8 65.2c-1.4-65.2 42.5-97.75 136.05-97.75 39.7 0 77.95 1.4 96.35 4.25 18.45 2.8 28.35 7.05 32.6 21.25l4.25 19.8c19.85-31.15 63.8-46.75 130.4-46.75 70.85 0 111.95 1.45 123.25 5.7a26.15 26.15 0 0 1 18.45 15.55l1.4 4.25 8.5 26.95c1.45 4.25-1.4 7.1-7.1 7.1l-45.3-2.85c-29.8-1.45-53.85-2.85-70.9-2.85-32.55 0-53.8 2.85-66.6 7.1-18.4 7.1-26.9 19.85-25.5 41.1l143.15 18.4c63.75 8.5 107.7 28.35 128.95 59.5l-49.6-165.75c-1.4-2.85 0-5.7 1.4-7.1 1.45-1.4 4.25-2.85 9.95-2.85h59.5c9.9 0 14.15 5.7 15.6 9.95l52.4 182.8c7.1 24.05 28.35 35.4 68 35.4 35.5 0 61 0 78-1.4h1.4c2.85 0 8.5 1.4 12.75 8.5l8.5 25.5c0 4.25 0 8.5-2.85 11.35zM242.05 513.5c-18.4-2.85-45.35-4.25-79.35-4.25-60.95 0-86.45 12.75-79.35 36.85 5.65 17 21.25 28.35 46.75 31.2l137.5 18.4z m633.45 147.5c-5.7-18.45-32.6-31.2-80.8-38.3l-114.75-15.55 2.8 9.9c9.95 31.2 22.7 51 39.7 62.35 17 11.35 45.35 17 85 17 52.5-1.4 75.15-12.75 68-35.4Z" horiz-adv-x="1200"/><glyph glyph-name="acm" unicode="&#xEA13;" d="M371.75 587.5c-4-1.25-7.5-3.6-10.1-6.75-2.4-3.6-3.65-7.9-3.5-12.25 0-7.5 1.9-12.6 6-15.4 3.85-2.8 9.7-4.1 17.6-4.1 4.35 0 8.7 1 13.2 3 4.5 1.9 8.7 4.75 12.25 8.25v33c-8.4-0.75-15.15-1.5-20.25-2.25-5.25-0.5-10.35-1.7-15.25-3.5zM600 1200L0 600l600-600 600 600L600 1200z m0-967.85C396.9 232.25 232.25 396.85 232.15 600 232.25 803.1 396.9 967.8 600 967.9c203.15-0.1 367.75-164.75 367.85-367.9-0.1-203.15-164.7-367.75-367.85-367.85zM600 931.15v-0.1c-182.7 0-331-148.3-331-331s148.3-331 331-331 331 148.3 331 331c0 182.8-148.2 331-331 331.15z m-143.1-412.3h-49.75v16.8l-9.1-7.7c-7.1-5.4-15.2-9.4-23.85-11.65-4.1-1-10.1-1.75-17.6-1.75-13.1-0.35-25.75 4.85-34.9 14.25-9.35 9.5-13.85 21.3-13.85 35.8 0 11.9 2.3 21.35 7 28.7 5 7.5 12 13.5 20.25 17.4 10.25 4.5 21.15 7.6 32.3 9 12.5 1.65 25.8 3 40.15 3.9v0.85c0 8.8-3.3 14.85-9.8 18.15-6.5 3.5-16.1 5.1-29 5.1-5.85 0-12.7-1-20.5-3.15-7.9-2.2-15.4-5-22.9-8.2H321v38.5c4.85 1.5 12.8 3.1 24 5 10.85 2 21.9 3 33.15 3 27.5 0 47.5-4.6 60-13.8 12.5-9.15 18.75-23.1 18.75-41.85v-108.4z m161 8.35c-3.5-1.4-6.7-2.8-10-4.3-3.7-1.5-7.5-2.9-11.5-4-4.7-1.2-9.3-2.2-13.5-3-4.2-0.7-9.8-1.1-16.8-1.1-13.15 0-25.3 1.65-36.15 5-10.5 3.1-20.3 8.25-28.5 15.35-8.15 7.1-14.6 16-18.65 26-4.5 10.5-6.75 22.85-6.75 36.9-0.4 13.5 2.1 26.75 7.3 39 4.5 10.2 11.2 19.2 19.6 26.5 8.25 6.7 17.75 11.65 28 14.5 11 3.3 22.35 4.8 33.75 4.8 18.5 0 36.6-4.35 53-12.75v-42.7h-6.35c-2.4 2.15-4.8 4.25-7.35 6.2-3 2.4-6.1 4.5-9.4 6.3-8.35 4.75-17.85 7.2-27.5 7-12.7 0-22.5-4.3-29.5-13.15-6.9-8.85-10.5-20.7-10.5-35.7 0-16 3.75-28 11.25-35.75 7.5-7.85 17.35-11.75 29.6-11.75 5.5 0 11.1 0.65 16.5 2.1 7.65 2.15 14.75 6 20.75 11.25 2.4 2 4.4 4.1 6.15 5.5h6.5v-42.15z m216.65-8.65v79.85c0 7.85 0 14.5-0.35 19.85-0.1 4.5-1 9-2.6 13.15-1.15 3.3-3.5 6-6.5 7.5-7.65 3.2-16.25 3.15-23.9-0.1-4.3-2-8.4-4.35-12.2-7v-113.15h-49.65v79.75c0 7.8-0.15 14.3-0.5 19.8-0.15 4.5-1 9-2.5 13.2-1.35 3.3-3.8 6-6.8 7.5-3 1.65-7.25 2.4-12.5 2.4-4.15 0-8.25-1-12-2.8-3.9-2-7.6-4.3-11.4-6.8v-113.1h-49.75V678h49.65v-17.8c7.2 6.25 14.8 11.65 23 16.15 7.4 4 15.7 6 24.2 6 9.1 0.2 18-2.25 25.7-7 7.65-5 13.5-12.2 17-20.7 9.5 8.85 18.5 15.7 27 20.5 8.5 4.8 17 7.25 25.75 7.25 6.8 0.1 13.5-1.15 19.8-3.75 5.75-2.2 11-5.8 15-10.5 4.5-5.3 8-11.5 10-18.2 2.25-7.1 3.3-16.4 3.3-27.65v-103.8h-49.75z" horiz-adv-x="1200"/><glyph glyph-name="actigraph" unicode="&#xEA14;" d="M602.15 1200c20.65 0 41.5-13.3 52.7-27.3 11.2-14 9.55-17.1 10.5-26.45 0.9-9.35 8-13.25 8-31s-8-24.7-13.6-32.2c-5.6-7.5-2.35-10-7-20.3-4.7-10.3-5.9-8.4-9.65-16.8-3.75-8.4 6.15-23.1 15.95-30.5 9.8-7.35 18.9-13.1 46.9-15.9 28-2.8 34.15-1.5 48.15-2.5 14-0.9 22.65-8.7 44.1-11.5 21.5-2.8 22.45 0 40.15 0 17.75 0 23.1-2.65 39-2.65 15.85 0 37.5 7 57.05 6.1 19.65-0.9 71.5-5.75 93-5.75 21.5 0 46.55 22.1 69 21.15 22.4-0.9 41.6-5.95 42.5-22.75 0.95-16.8-8.25-38.1-18.5-41.85-10.3-3.7-30.45 3.35-42.6 3.35-12.1 0-24.8-1.5-30.3-1.25-6.65 0.35-11.6 4.5-19.05 2.65-7.5-1.9-38-14.85-49.2-15.75-11.2-1-34.45 1.7-43.75-0.15-9.35-1.9-41.1-7.5-54.15-8.4-13.1-1-39.3 1-51.45-0.9-12.15-1.85-30.75-5.65-41.95-5.65-11.2 0-35.1 8.6-43.3 2.7-19.85-14.4-16.8-34.15-26.6-62.35-9.35-26.9-24.4-44-26.25-64.5-1.9-20.6 11.2-86.9 17.75-110.25 6.5-23.35 25.2-54.15 37.35-92.4 12.1-38.3 29-115.5 35.55-147.25 6.55-31.75 0.2-31 5.5-48.85 5.4-18.1 30.8-46.7 43.9-91.5 13.05-44.8 27.35-137.2 32-161.5 4.7-24.25 6.75-27.9 8.6-35.35 1.85-7.5-2.25-10.7 1.95-17.5 18.9-30.65 42.4-42.45 39.6-61.1-2.8-18.7-32.6-25.65-54.15-22.4-16.3 2.4-26.15 33.6-29.85 42.95-3.75 9.3 0.15 11.95-3.6 18.5-3.75 6.5-4.45 9.95-6.3 26.75-1.85 16.8 0.8 18-1.95 29.1-14.7 59.85-57.2 118.35-67.5 153.5-5.85 19.65-2.45 22.2-6.2 39.95-3.7 17.75-120.1 271-144.15 271-24.8 0-139.15-250.3-143.85-266.15-4.65-15.9-2-31.9-6.65-44.95s-60.4-119.4-68-152.1c-5-21.4-0.6-27.8-3.4-40-2.8-12.1-13.3-65.15-32.95-75.45-19.6-10.25-54.3-2.3-58.9 14.6-7.1 26 33.9 45.3 38.25 69.1 3.8 20.5 40.2 208.25 55.1 244.65 14.95 36.4 24.3 32.7 30.8 53.2 2.1 6.5 2.15 25.7 5.65 47.25 7.65 46.7 21.65 114.7 38.25 160.05 24.3 66.3 57.85 130.55 51.6 194.65-2.65 26.95-11.5 30.3-20.85 61.1-9.35 30.8-21.4 67.35-33.5 69.2-12.2 1.85-22.45-4.65-37.4-4.65s-44.8 6.5-56 6.5c-11.2 0-49.6 2.5-65.5 2.5-15.9 0-27 4.05-36.3 3.15-9.35-1-18-0.35-29.2-0.35-14 0-50.85 17-60.2 17-9.35 0-12.25-1.8-20.65-1.8-8.4 0-16.25 3.15-25.6 3.15-9.3 0-26.6-5.4-35.5-5.4-9.3 0-27 20.95-24.2 44.3 2.8 23.3 40.25 21 49.55 21 13.15 0 44.45-17.75 56.55-19.6 12.15-1.9 76.9 5.05 90.9 5.05s54-6.3 75.45-6.3c21.5 0 50.7-0.5 68.45 2.3s34 12.2 45.15 13.1c11.2 0.95 61.9-4.55 90.35 15.3 18.75 13.05 20.55 24.3 19.6 32.7-0.9 8.4-7 9.6-11.7 18-4.7 8.4-2.65 15.25-5.45 20.85-2.8 5.6-13.45 10.6-13.65 31.15-0.2 16.1 1.75 13.9 7.35 29.8 5.6 15.85 5.8 22.55 18.9 35.35 9.5 9.2 28.75 18.55 49.4 18.55" horiz-adv-x="1200"/><glyph glyph-name="activision" unicode="&#xEA15;" d="M94 754.5L0 485.8h49.25l13.5 35.9h62.6l13.45-35.9h49.25z m161.2-17.95l-26.85-49.2h107.5v-201.5H385v201.5h76.1l94.1-241.85 89.55 241.85h228.35l-26.85 49.2H609l-53.7-143.25L497 736.55z m810.5-58.15v-188.1h49.3v76.15l85-85.1v188h-44.8v-67.1z m-797-4.5c-53.75 0-94.05-40.35-94.05-94.05 0-53.75 40.3-94 94-94 22.4 0 44.75 8.95 58.2 22.35L300 553c-9-9-17.9-13.5-31.35-13.5a44.85 44.85 0 0 0-44.75 44.8c0 22.4 17.9 44.8 44.75 44.8 9 0 22.4-4.45 26.85-13.4l31.35 35.75c-13.5 13.45-35.8 22.4-58.2 22.4z m376.1 0v-183.6h49.25v183.55z m107.4 0c-17.9 0-40.2-9-40.2-44.8 0-44.8 53.7-71.65 49.25-89.6-4.5-8.95-13.5-8.9-17.95-8.9h-31.3v-40.3h53.7c22.4 0 44.75 13.45 44.75 40.3 0 49.25-62.65 80.55-49.2 98.5 0 4.5 8.9 4.5 8.9 4.5h31.4v40.25z m62.75 0v-183.6h49.2v183.55z m152.25 0c-53.75 0-94-40.35-94-94.05 0-49.25 40.25-94 94-94 53.7 0 94 40.25 94 94 0 53.7-40.3 94-94 94z m-550.8-4.5v-183.6h49.3v183.6z m550.8-44.8c22.4 0 44.75-17.9 44.75-44.75a44.85 44.85 0 0 0-44.75-44.8c-26.9 0-49.25 17.9-44.8 44.8 0 22.4 17.9 44.75 44.8 44.75z m-873.2-8.9l13.5-44.8h-27z" horiz-adv-x="1200"/><glyph glyph-name="adafruit" unicode="&#xEA16;" d="M719.95 560.3c-46.2-7.4-86.1 1.85-89.05 20.6-3 18.75 32 39.9 78.25 47.25 46.2 7.35 86.05-1.9 89-20.6 3-18.7-32-39.9-78.2-47.25m-43.9-193c-16.9-8.6-47.85 18.15-69.1 59.8-21.3 41.7-24.85 82.5-7.9 91.1 16.9 8.6 47.8-18.15 69.1-59.8 21.25-41.65 24.85-82.5 7.9-91.1m-182 77.6c-33.1-33.1-70.75-49.05-84.15-35.65-13.5 13.4 2.5 51.1 35.5 84.2 33 33.15 70.7 49.1 84.15 35.7 13.45-13.4-2.5-51.15-35.5-84.25m-126.55 230.5c8.55 16.95 49.35 13.4 91-7.8 41.7-21.2 68.6-52.1 60-69-8.65-16.9-49.4-13.45-91.1 7.75-41.7 21.2-68.5 52.15-59.9 69.05m240 122.5c18.75-2.9 28-42.8 20.7-89-7.25-46.25-28.3-81.25-47.1-78.35-18.7 3-28 42.85-20.75 89 7.25 46.25 28.35 81.3 47.15 78.4m591.75-126.5c-3.9 24.55-17.25 31.6-49.45 41.85l-188.1 60s-114.15 43.15-198.7-17.85c-11.4-8.2-23.2-17.55-35-27.5 9.9 11.8 19.25 23.6 27.5 35 60.75 84.7 17.45 198.75 17.45 198.75l-60.35 188.05c-10.35 32.15-17.35 45.5-42 49.3-24.6 3.9-35.35-6.6-55.05-34l-115.25-160.45s-76.2-95.15-44.4-194.5c4.3-13.3 9.55-27.45 15.4-41.8a610.75 610.75 0 0 1-24.85 37C384.65 889.25 262.9 883.4 262.9 883.4S91 884 65.4 884c-33.8 0.15-48.6-2.5-59.9-24.65-11.3-22.15-4.65-35.7 15.35-62.9 15.15-20.75 117-159.15 117-159.15S204.75 535.4 309 535c14-0.05 29 0.6 44.45 1.7a615.85 615.85 0 0 1-42.75-12.2c-99-32.8-130.95-150.5-130.95-150.5L118 186.35c-10.5-32-12.6-46.95 5-64.5 17.6-17.65 32.5-15.5 64.55-4.9 24.45 8 187.5 62.1 187.5 62.1s117.6 32.2 150.2 131.2c4.4 13.3 8.45 27.8 12.15 42.7a555 555 0 0 1-1.5-44.35c0.5-104.25 102.55-171.05 102.55-171.05l159.3-116.65c27.3-19.9 40.8-26.55 63-15.25 22.15 11.3 24.75 26.15 24.55 59.95l-1.1 197.5s5.7 121.75-78.35 183.4a596.5 596.5 0 0 1-36.95 24.75c14.35-5.75 28.4-11 41.8-15.2 99.3-31.65 194.4 44.7 194.4 44.7l160.2 115.5c27.35 19.75 37.8 30.6 33.95 55.2" horiz-adv-x="1200"/><glyph glyph-name="adblock" unicode="&#xEA17;" d="M388.75 1200a90 90 0 0 1-63.65-26.35L26.4 874.85A90 90 0 0 1 0 811.25v-422.5c0-23.9 9.5-46.8 26.4-63.7l298.7-298.7A90 90 0 0 1 388.75 0h422.5a90 90 0 0 1 63.65 26.35l298.75 298.7A90 90 0 0 1 1200 388.75v422.5a90 90 0 0 1-26.35 63.6L874.9 1173.65A90 90 0 0 1 811.25 1200z m221.35-150c51 0 47.9-55.4 47.9-55.4v-339.2s-0.45-10.9 8-10.9c9.4 0 8.75 11.3 8.75 11.3l-0.1 281.5s-2.5 49.3 47.95 49.3c50.5 0 48.5-49.15 48.5-49.15v-381.05s0.7-7.9 7.05-7.9c6.35 0 47.2 106.1 47.2 106.1s22.55 74.85 128.8 55c1.9-0.4-8.35-34.4-8.35-34.4l-114.15-327.8S784.5 165 585.7 165c-252.2 0-240.4 270.35-240.7 270.25V821.9s-0.8 49.5 44.85 49.5c42.9 0 42.45-49.5 42.45-49.5l0.35-179.15s-0.2-8.6 8.35-8.6c8 0 7.05 8.6 7.05 8.6l0.5 296.3s-2.75 58.1 48.3 58.1c52 0 49.15-57.1 49.15-57.1v-280.55s-0.25-10.2 7.6-10.2c8.4 0 7.7 10.3 7.7 10.3l0.5 334.65S559 1050 610.1 1050Z" horiz-adv-x="1200"/><glyph glyph-name="adblockplus" unicode="&#xEA18;" d="M351.35 1200L0 848.65v-497.05L351.35 0h497.05L1200 351.6v497L848.65 1200z m10.1-24h477.1l337.45-337.45v-477.1l-337.45-337.45H361.5L24 361.45V838.5z m27.85-67.2L91.2 810.7v-421.4l298.1-298.1h421.4l298.1 298.1V810.7l-298.1 298.1zM219.8 816H319l114.25-420.5H345.85l-22.35 100.1H211.9l-22.3-99.85h-84z m265 0h124.55c17.75 0.25 35.5-1.45 53.05-4.8 15.1-2.9 29.75-8.65 42.5-17 12-8.2 21.8-19.25 28.5-32.2 7-13.45 10.35-30.25 10.35-50.4 0-9.6-1.2-19.2-3.6-28.3-2.4-9.4-6-18.25-10.8-26.4-5-8.4-11.5-15.85-18.95-21.85-8.15-6.5-17.5-11.3-27.35-14.15v-2.65c26.15-5.5 45.85-16.35 59-32.15 13.25-15.85 19.95-37.95 19.95-66.5 0-21.6-3.6-40.1-10.8-55.45-7-15.1-17.3-28.05-30.25-38.4-13.45-10.3-28.8-18-45.1-22.55-18-5-36.75-7.7-55.45-7.45H484.8z m333.35 0h133.45c18.7 0.25 37.45-2.15 55.7-6.7 16.5-4.1 32.15-11.8 45.35-22.6 13.45-11.25 24-25.65 30.5-42 7.4-17.25 11.25-38.6 11.25-64.05 0-24.5-3.85-45.85-11.5-63.85-7-17-17.5-32.15-31.2-44.4a127.65 127.65 0 0 0-45.4-25.9 177.55 177.55 0 0 0-54.95-8.4H900.5v-142.6h-82.35zM266.4 743.75c-4.55-22.3-9.1-45.35-13.7-68.65-4.5-23.25-9.6-45.6-14.85-66.7l-8.9-38.65h77.75l-8.4 38.65a1575 1575 0 0 0-15.1 67 2781.15 2781.15 0 0 1-14.65 68.35z m300.25-1.45v-96h38.65c20.15 0 34.8 4.6 43.9 13.95 9.1 9.35 13.7 21.85 13.7 37.65 0 15.85-4.6 27.4-13.95 34.1-9.35 6.7-23.75 10.3-43.2 10.3z m334.05-1.9v-127h45.85c44.9 0 67.2 22.35 67.2 67 0 21.85-5.75 37.45-17 46.55-11.3 9.15-28.1 13.45-50.2 13.45z m-334.05-161v-110.2h46.55c45.1 0 67.7 19.2 67.7 57.35 0 18.5-5.5 31.95-16.8 40.35-11.3 8.4-28.1 12.5-50.9 12.5z" horiz-adv-x="1200"/><glyph glyph-name="addthis" unicode="&#xEA19;" d="M900 525.2h-225.05v-224.2h-150v224.2H300v149.5h225V898.95h150.05v-224.25H900v-149.5zM1050 1197.95H150C67.4 1197.85 0.4 1131.05 0 1048.45v-897c0.4-82.5 67.4-149.3 150-149.4h900c82.55 0.1 149.55 66.9 150 149.4V1048.45c-0.45 82.6-67.4 149.35-150 149.5z" horiz-adv-x="1200"/><glyph glyph-name="adguard" unicode="&#xEA1A;" d="M600 1200C412.45 1200 186.25 1156.95 0 1062.25 0 857.75-2.55 348.15 600 0 1202.55 348.15 1200 857.75 1200 1062.25 1013.75 1156.95 787.55 1200 600 1200z m-5.3-771.45L342.85 719.4c16.55 11.95 87.5 57.15 139.7-2.1l109.35-129.4c0.45 0.05 290.05 297.4 290.75 296.9 12.3 11 34.7 25.15 60.2 5.05l-348.15-461.3z" horiz-adv-x="1200"/><glyph glyph-name="adidas" unicode="&#xEA1B;" d="M596.8 302.4c0 32.2 25.85 58 58.1 58 32.2 0 58-25.8 58-58a57.85 57.85 0 0 0-58-58.05 57.85 57.85 0 0 0-58.1 58m236.2 0c0 32.25 25.85 58.1 58.05 58.1s58.05-25.85 58.05-58.05-25.85-58.05-58-58.05a57.85 57.85 0 0 0-58.1 58m-547.5 0c0 32.25 25.85 58.1 58.05 58.1s58-25.85 58-58.05-25.8-58.05-58-58.05a57.85 57.85 0 0 0-58.05 58m-236.2 0c0 32.25 25.85 58.1 58.05 58.1s58.05-25.85 58.05-58.05a57.85 57.85 0 0 0-58.05-58.05 57.85 57.85 0 0 0-58 58m477.5 102.6h-50.5v-203.15h50.5v203.15zM165 201.8h50.5v203.15H165v-16.3a104.35 104.35 0 0 1-60 18.7c-58.1 0-105-46.9-105-105 0-58.4 46.9-104.95 105-104.95 22.25 0 42.9 6.75 60 18.7v-14.3z m783.7 0h50.5v203.15h-50.5v-16.3a104.35 104.35 0 0 1-60 18.7c-58.1 0-105-46.9-105-105a104.6 104.6 0 0 1 105-104.95c22.25 0 42.9 6.75 60 18.7v-14.3z m69.2 66c1.6-41 36.6-70 95-70 47.75 0 87.1 20.7 87.1 66.4 0 31.8-17.9 50.5-59.25 58.5l-32.2 6.3c-20.7 4-35 8-35 20.3 0 13.5 13.9 19.5 31.4 19.5 25.5 0 35.8-12.75 36.6-27.85h50.9c-2.8 39.75-34.6 66.4-85.9 66.4-52.85 0-84.3-29-84.3-66.8 0-46.1 37.4-53.65 69.6-59.65l26.65-4.75c19.1-3.6 27.45-9.15 27.45-20.3 0-9.95-9.55-19.85-32.25-19.85-33 0-43.7 17.1-44.1 31.8h-51.7zM401.2 474.15v-85.5a104.35 104.35 0 0 1-60 18.7c-58.1 0-105-46.9-105-105 0-58.4 46.9-104.95 105-104.95 22.2 0 42.9 6.75 60 18.7v-14.3h50.5v272.35h-50.5z m311.3 0v-85.5a104.35 104.35 0 0 1-60 18.7c-58.05 0-105-46.9-105-105a104.6 104.6 0 0 1 105-104.95c22.25 0 42.9 6.75 60 18.7v-14.3h50.5v272.35h-50.5z m-581.3 60l34.2-60h235.8l-93.45 161.45-176.5-101.4z m395.65-110.5v50.5h185.65l-198 342.75L337.55 715.5l138.8-241.35v-50.5h50.5z m260.85 50.5h236.15L718.5 1002.6l-176.55-101.8 245.75-426.65z" horiz-adv-x="1200"/><glyph glyph-name="adminer" unicode="&#xEA1C;" d="M1126.05 785.15a26.5 26.5 0 0 0-26.5-26.5 26.5 26.5 0 0 0-26.55 26.5 26.5 26.5 0 0 0 26.5 26.5 26.5 26.5 0 0 0 26.55-26.5z m-54.25 306.1c-13.2 0.4-21.9-0.5-21.9-0.5l3.8-41.8s28.85 2.25 56-5.35c13.6-3.8 26.05-9.9 34.45-18.45 8.35-8.5 13.85-19.1 13.85-37.9 0-9.8-2.6-14.8-6.95-19.5a48.2 48.2 0 0 0-18.9-11.6c-15.6-5.65-32.5-5.8-32.5-5.8l-21.1 0.1v-108.7h42V912.1c8.85 0.85 12.5-0.2 25.85 4.6 12.05 4.35 25.1 11.15 35.7 22.75A71 71 0 0 1 1200 987.25c0 28.25-10.4 51.5-25.9 67.3-15.5 15.8-34.85 24.4-53.05 29.5a209.65 209.65 0 0 1-49.25 7.2ZM894.6 1010.5l-143.7-124.35 144.3-122.55 27.2 32-107 90.85 106.65 92.3zM329.35 944.6c-86.7 0-165.1-9.3-223.5-25-29.2-7.85-53.4-17.15-71.9-28.95-18.5-11.75-33.95-28-33.95-50V212.65c0-14.35 7.25-27 16.85-36.5 9.55-9.55 21.85-17.15 36.6-24 29.5-13.75 69.5-24.5 118.5-32.05 98-15.25 216.75-15.25 314.75 0 49 7.6 89 18.3 118.5 32 14.8 6.9 27 14.5 36.6 24 9.55 9.5 16.85 22.2 16.85 36.55V840.65c0 22-15.45 38.25-34 50-18.5 11.8-42.65 21.1-71.85 28.95-58.35 15.7-136.8 25-223.5 25Zm0-42c83.6 0 159.35-9.25 212.5-23.55 26.65-7.15 47.65-15.75 60.35-23.8 12.65-8.05 14.5-13.7 14.5-14.6 0-0.9-1.85-6.5-14.5-14.5-12.7-8.1-33.7-16.7-60.3-23.85-53.2-14.35-128.95-23.6-212.55-23.6-83.65 0-159.4 9.25-212.6 23.6-26.6 7.15-47.6 15.75-60.25 23.8-12.7 8.1-14.5 13.65-14.5 14.55 0 0.9 1.8 6.5 14.5 14.6 12.65 8.05 33.65 16.65 60.25 23.8 53.2 14.3 129 23.55 212.6 23.55ZM41.95 787.5c17.6-10 38-18.7 63.9-25.7 58.4-15.7 136.8-25 223.5-25 86.65 0 165.1 9.3 223.5 25 25.9 7 46.25 15.75 63.8 25.7v-156.15c0-0.5 0-2.35-4.5-6.75a91.75 91.75 0 0 0-24.65-15.65c-23.75-11.05-60.85-21.45-107.25-28.65-92.8-14.4-209.05-14.4-301.9 0-46.4 7.2-83.5 17.6-107.2 28.65a91.45 91.45 0 0 0-24.7 15.65c-4.4 4.4-4.5 6.3-4.5 6.75Zm0-209.1c4.15-2.35 6.85-5.35 11.5-7.5 29.5-13.8 69.5-24.5 118.5-32.1 98-15.2 216.75-15.2 314.75 0 49 7.6 89 18.3 118.5 32.1 4.65 2.15 7.35 5.15 11.5 7.5v-156.35c0-0.5-0.1-2.35-4.5-6.75a91.7 91.7 0 0 0-24.7-15.7c-23.75-11.05-60.85-21.45-107.25-28.65-92.8-14.4-209.05-14.4-301.9 0-46.4 7.2-83.5 17.6-107.2 28.65a91.4 91.4 0 0 0-24.7 15.7c-4.4 4.4-4.5 6.3-4.5 6.75z m0-209.35c4.15-2.35 6.85-5.35 11.5-7.5 29.5-13.75 69.5-24.5 118.5-32.1 98-15.2 216.75-15.2 314.75 0 49 7.65 89 18.35 118.5 32.1 4.65 2.15 7.35 5.15 11.5 7.5v-156.35c0-0.5-0.1-2.35-4.5-6.75a91.7 91.7 0 0 0-24.7-15.7c-23.75-11.05-60.85-21.45-107.25-28.65-92.8-14.4-209.05-14.4-301.9 0-46.4 7.2-83.5 17.6-107.2 28.65a91.4 91.4 0 0 0-24.7 15.7c-4.4 4.4-4.5 6.3-4.5 6.75Z" horiz-adv-x="1200"/><glyph glyph-name="adobe" unicode="&#xEA1D;" d="M698.3 68.8l-84.5 214.05H406.1l194.6 457.2 283.1-671.25zM444.2 1131.2H0v-1062.4z m755.8 0h-444.2L1200 68.8Z" horiz-adv-x="1200"/><glyph glyph-name="adobeacrobatreader" unicode="&#xEA1E;" d="M1181.5 435c-35.5 37.25-108.3 58.5-211.2 58.5-55 0-118.85-5.3-188.05-17.7a972.15 972.15 0 0 0-115.35 133.05c-26.6 35.5-49.7 74.5-71 111.8 40.85 124.2 60.35 225.35 60.35 298.1 0 81.6-30.15 166.8-117.1 166.8-26.6 0-53.25-16-67.45-39.05-39-69.2-21.25-220 46.15-369.05a3013.85 3013.85 0 0 0-85.15-225.35c-28.4-67.45-60.35-136.65-95.85-200.5C141.7 273.5 15.7 183 1.5 112.1c-5.3-26.65 3.55-51.5 23.1-71 7.1-5.35 31.95-26.65 74.5-26.65 129.5 0 266.15 209.4 335.35 335.35 53.25 17.75 106.5 35.5 159.7 49.7a1748.15 1748.15 0 0 0 170.35 37.25c136.6-122.4 257.25-141.95 317.6-141.95 74.5 0 101.15 30.2 110 55 16 32 5.3 67.45-10.65 85.2z m-71-51.5c-5.35-26.6-32-44.35-69.2-44.35-10.65 0-19.5 1.8-30.2 3.55-67.4 16-131.3 49.7-195.15 102.95a885.85 885.85 0 0 0 149 12.4c37.3 0 69.25-1.75 90.5-7.1 24.85-5.3 63.9-21.3 55-67.4z m-376.2 83.4a1900.5 1900.5 0 0 1-147.25-33.7 1984 1984 0 0 1-126-37.25 2002.5 2002.5 0 0 1 60.35 127.75c21.3 49.7 39 101.15 56.8 149.05 17.7-30.15 37.25-60.35 56.75-86.95a2506.35 2506.35 0 0 1 99.35-118.9zM501.9 1127a38.4 38.4 0 0 0 33.7 21.25c37.25 0 44.35-42.55 44.35-76.3 0-56.75-17.75-143.7-47.9-243.05-51.5 138.4-55 253.7-30.15 298.1zM306.7 300.15c-90.5-149.05-177.45-241.3-230.65-241.3a43.6 43.6 0 0 0-26.6 8.85c-10.65 10.65-16 23.05-12.45 37.25 10.65 53.25 113.55 127.75 269.7 195.2Z" horiz-adv-x="1200"/><glyph glyph-name="adobeaftereffects" unicode="&#xEA1F;" d="M427 663.5c-5 15.5-9.5 30.5-14.5 46s-9.5 30-13.5 44.5c-4 14-7.5 27-11 39h-1c-4.5-21.5-10-43-17-64.5-7.5-24-15-49-23-74-6.5-25.5-14.5-49-22-70h127c-3 10.5-7 23-11.5 36-4.5 13.5-9 28-13.5 43z m429 14.5c-27.5 1.5-53.5-13-66.5-38-6-11.5-9.5-23.5-11-36h105.45c13 0 22.5 0 28.5 0.5 4 0.5 8 1.5 11.5 4v5c0 6.5-1.05 12.5-3.05 18.5-8.9 28-35.4 47-64.9 46zM987.5 1185H212.5C95 1185 0 1090 0 972.5v-745c0-117.5 95-212.5 212.5-212.5h775c117.5 0 212.5 95 212.5 212.5V972.5C1200 1090 1105 1185 987.5 1185z m-352-825.55h-104.5c-3.5-0.5-7 2.05-8 5.5l-41 120H296l-38-118c-1-4.5-5-7.5-9.5-7H154.5c-5.5 0-7 3-5.5 9L310 830.5c1.5 5 3 9.5 5 15.5 2 10.5 3 21.5 3 32.5-0.5 2.5 1.5 5 4 5.5h129.5c3.5 0 6-1.5 6.5-4l182.5-512.5c1.5-5.5 0.05-8.05-5-8.05z m392.55 199.55c-1.05-9.45-1.55-16.5-2.05-21-0.5-3.5-3.45-6.5-7-6.5-3 0-8.5-0.5-16.5-1.05-7.95-1-17.5-1.45-28.95-1.45-11.5 0-23.55 2-36.5 2h-158.5c1.95-15.5 7-31 15.5-44.5 9.05-13.55 21.55-24 36.45-30.05 20-8.5 42.05-13 64.05-12.5 17.5 0.55 34.95 2 51.95 5.5 15.55 1.95 30.5 5.95 44.55 11.5 2.5 1.95 4 1 4-4v-76.55c0-1.95-0.5-4-1.05-5.95-1.05-1.5-2-2.55-3.45-3.5-16-7-32.5-12-50-15-23.55-4.5-47-6.5-71-6-38.05 0-70 6-96 17.5-24.5 10.55-46.05 27.05-63.05 47.5-15.95 19.5-27.5 41.5-34.5 65.5-7 23.55-10.45 48.05-10.45 73.05 0 26.95 4 53.5 12.5 79.5 8 25 20.5 48 37.5 68.5 16.5 20 36.95 36 60.45 47.5 23.55 11.5 51.5 15.5 83.5 15.5 26.55 0.5 53-4.5 77.5-15.5 20.5-9 38.5-22.5 52.5-40 13-17 23.5-36 30.05-57 6.45-20 9.45-40.5 9.45-61 0-12-0.5-22.5-0.95-32z" horiz-adv-x="1200"/><glyph glyph-name="adobeaudition" unicode="&#xEA20;" d="M987.5 1185H212.5C95 1185 0 1090 0 972.5v-745c0-117.5 95-212.5 212.5-212.5h775c117.5 0 212.5 95 212.5 212.5V972.5C1200 1090 1105 1185 987.5 1185zM625 360h-104.5c-3.5-0.55-7 2-8 5.5l-41 119.5H285.5l-38-118c-1-4.5-5-7.5-9.5-7H144c-5.5 0-7 3-5.5 9l161 462c1.5 5 3 10.5 5 16.5 2.5 10.5 4 21 4 32-0.5 2.5 1.5 5 4 5.5h129.5c3.5 0 6-1.5 6.5-4l181.5-513.05c1.5-5.45 0-7.95-5-7.95z m387.5-0.55h-86.05c-3.95-0.5-7.95 2.05-9.45 5.5-1 4-2 8.55-3.05 12.5-1 3.5-1 7-1 10.5-16-14.45-35.5-25-56.5-30.95-18-5.05-36.95-7.5-55.5-7.5-18.45 0-37 2.5-54.5 8.5-16 5.45-30.95 15-42.5 27.5-13 14-22.5 30.5-28.05 48.5-7 23.05-10.45 47-9.95 71V753c-0.5 3 1.45 6 5 6.5h96.95c3.05 0.5 6.05-1.5 6.55-5v-236.55c0-21.95 5-39.45 14.45-51.95 9.55-12.5 29-19.05 51.55-19.05 11.45 0 22.95 2.05 34 6.05 11.5 4 21.95 9.45 31.5 16.5V754c0 3.5 2.5 5.5 7 5.5h95.5c2.55 0.5 5.45-1.5 5.45-4v-308c0-13.55 0-25.55 0.55-36 0.5-10.55 1.05-19.55 1.5-27.55 1-8 1.45-12.5 1.95-17.95 0.6-4.5-1.4-6.55-5.4-6.55zM416.5 663.5c-5 15.5-9.5 30.5-14.5 46s-9.5 30-13.5 44.5c-4 14-7.5 27-11 39h-1c-4.5-21.5-10-43-17-64.5-7.5-24-15-49-23-74-6.5-25.5-14.5-49-22-70h127c-3 10.5-7 23-11.5 36-4.5 13.5-9 28-13.5 43z" horiz-adv-x="1200"/><glyph glyph-name="adobecreativecloud" unicode="&#xEA21;" d="M739.1 1042.35c-11.55-1-23.6-2-35.15-3.5a422.65 422.65 0 0 1-141.6-41.7 447.55 447.55 0 0 1-123-88.85c-1.5-2-4.5-3-7.05-2.5a372 372 0 0 1-74.8 3.5 371.2 371.2 0 0 1-146.6-38.15c-88.4-44.2-150.65-113-186.8-205.4a354.45 354.45 0 0 1-23.1-106.95c0-2.5-0.5-4.5-1-6.5v-38.65c1-10.05 2.5-19.6 3.5-29.65 5-40.65 16.6-79.8 35.15-116.5 41.2-82.3 104.45-142.55 189.3-179.7a356.35 356.35 0 0 1 122.5-29.65c1.6 0 3-0.2 4.3-0.5h428.8c9.15 0.85 18.1 1.75 27.35 3a417.2 417.2 0 0 1 140.55 41.7 441.8 441.8 0 0 1 182.3 165.2 409.35 409.35 0 0 1 59.2 154.65c2.5 17 4 34.6 6.05 51.7 0 2.5 0.5 4.5 1 6.5v39.7c-1 11.5-2.5 22.6-2.5 33.1a417.25 417.25 0 0 1-41.7 140.6 447.6 447.6 0 0 1-166.2 182.25 412.25 412.25 0 0 1-153.6 58.75c-18.1 3-35.65 4.5-53.75 6.5-2.5 0-4.5 0.5-7 1z m18.45-84.65c106.3-0.25 196.5-41.3 269.75-122.75a346.5 346.5 0 0 0 80.8-166.15c7.5-38.2 9.05-77.35 3.5-116-9.5-67.3-35.1-127.5-78.8-180.25a354.1 354.1 0 0 0-199.85-122.5 364.85 364.85 0 0 0-128-5c-54.75 7-104.95 25.05-150.15 57.7a260 260 0 0 0-33.6 28.65c-61.3 60.25-122 121-183.3 181.25-15.05 15-16.05 31.6-9 46.7a41.1 41.1 0 0 0 43.15 23.6c10.5-1 18.6-7.05 26.1-14.6 55.25-55.7 110-110.45 165.2-166.2a263.15 263.15 0 0 1 154.65-76.8c97.4-13.05 180.25 17.05 246 89.9 35.65 39.65 57.25 87.35 66.3 140.55 13 79.35-5.5 150.65-54.75 213.4-43.65 55.75-100.9 90.4-170.2 102.95-70.8 12.5-137.55-1-198.3-39.7-1.5-1-5-1.5-6.55-0.5a452 452 0 0 1-70.3 42.7s-0.5 0.5-1 1.5a330.15 330.15 0 0 0 62.75 41.15 332.3 332.3 0 0 0 132.05 39.2 422.5 422.5 0 0 0 33.5 1.2zM377.3 824.55c72.75 1.2 139.55-26.25 199.1-81.5 42.7-40.1 81.85-81.8 123-123.5 11.55-11.5 14.05-26.1 8.55-41.65-5.5-15.55-18.1-23.1-34.15-25.6a36.1 36.1 0 0 0-31.6 11.5c-39.2 39.2-78.35 77.85-117 117.5-31.65 32.65-69.3 51.25-113.5 59.3-97.9 17.55-196.8-39.2-231.95-132.05-45.2-118 26.1-251.55 149.1-279.7 24.1-5.5 49.75-5.5 74.85-5 7 0.5 11-2 16-6.5 24.15-23.65 49.75-47.25 74.85-70.8 1.5-1.5 3.5-3 5-4.5-3 0-5-0.5-7-0.5h-115a291.65 291.65 0 0 0-284.65 228.4c-32.65 147.1 51.7 296.25 196.3 339.9a316.5 316.5 0 0 0 88.1 14.7Z" horiz-adv-x="1200"/><glyph glyph-name="adobedreamweaver" unicode="&#xEA22;" d="M334.5 780c-21.5 6.5-43.5 10-66 9.5-10 0-18.5 0-25.5-0.5-7 0-15-0.5-23.5-1v-333.5c5.5 0 10.5 0 15.5-0.5 4.5-0.5 9.5-0.5 14-1 5-0.55 10.5-0.55 16.5-0.55 23-0.5 46 3.5 68 11.45 20 7.05 37.5 18.55 52.5 34.05 15 15.95 26.5 35 33.5 55.5 8 23.95 12 49.5 12 75 0.5 24-3.5 48-11.5 70.5C406 738 374.5 768 334.5 780zM987.5 1185H212.5C95 1185 0 1090 0 972.5v-745c0-117.5 95-212.5 212.5-212.5h775c117.5 0 212.5 95 212.5 212.5V972.5C1200 1090 1105 1185 987.5 1185z m-462-656.5c-9.5-28.05-24-54-43-77.05-17.5-21-38.5-38.95-61.5-53.45-22.5-14-47.5-24.45-73.5-31.5-25-6.5-51-10-77-10H214c-20 0-39 0-56 0.55-17.5 0.5-30.5 0.5-39 1-3.5 0-5 3.05-5 8V878c-0.5 3 2 6 5 6.5h0.5c7.5 0.5 19 1 33.5 1 15 0.5 32 0.5 52 1s41 0.5 63.5 0.5c61 0 112-11 152-33 38.5-20.5 70-52 90.5-90.5 20-38.5 30-82.5 30-132.5 0.5-35-4.5-69.5-15.5-102.5z m471-162c-0.5-2-1.45-4-3-5.45 0-2.55-2-3.5-4.55-3.05H895.5c-2-0.5-4.5 0.5-6 2-1.5 2-2.5 3.95-3 6-9.5 40-17.55 76-24 106.5-6.5 31-12 57-16 78.45-4 21.55-7.5 39.55-10.45 54.5-2.55 15-5.05 27.5-6.55 38h-0.5c-5-22-9.45-43.5-14-64-3.95-20.5-9-41.5-14-62.5-5-21-10.45-44-17-69-5.95-25-13-52.5-20.5-82-1-5.5-3.45-8-8-8h-93.5c-2.55-0.5-5 0.5-7.05 1.45-1.45 1.55-2.5 3.5-3.5 5.5L554 751.5c-1.5 4.5 0.5 6.5 6 6.5h94.5c4.5 0 7.05-1.5 7.5-5 9.95-44 18.45-82 25-114 6.5-32 12-59 15.5-81.45 3.5-22.5 7-41 9.5-55.05 2.5-14 4.5-26.05 5.95-35h1.55c1 8 1.95 15.55 3.45 23.55 2 9.45 4.5 21.95 7.45 37.5 3.05 15.5 6.55 33.5 11.05 54.5s9.45 45 15.55 73c5.45 27.5 13.5 59 22.95 94.5 0 2 1.05 4.5 2.05 6.5 0.5 1 2.45 1.5 5.45 1.5h98c3 0 4.5-2 5.05-5.5 8.5-36.5 15.5-68.5 21.5-96 5.45-27.5 10.5-52 15-73.5 4-21 7.45-39.5 9.5-54.5 1.95-15.55 4.5-28.05 6.45-38.5 1.55-8.5 3.05-17 3.5-25.55h1.5c2.5 10 4.5 22 6.5 35.5 2 13.55 4.5 28.5 8 45.5 3.05 17 6.5 35.5 10.5 56 3.45 20.5 8.5 43 14 68.5 5.45 25 11.5 52.5 18.45 82 1.05 4.5 3.05 6.5 6.55 6.5h87.5c4.5 0 5.95-2.5 5-7l-107.95-385.5z" horiz-adv-x="1200"/><glyph glyph-name="adobefonts" unicode="&#xEA23;" d="M988.2 1181.25H211.8A211.8 211.8 0 0 1 0 969.45V230.5a211.8 211.8 0 0 1 211.8-211.8h776.4A211.8 211.8 0 0 1 1200 230.55V969.5A211.8 211.8 0 0 1 988.2 1181.25z m-162.5-326.8c-12.1 0-18.2 9.05-22 21.95-12.85 48.5-29.5 62.85-39.35 62.85s-25-18.2-41.65-56c-20.85-48.5-37.7-98.5-50.35-149.7l86.6 0.1c5.5-14 0.5-30-11.9-38.6H661.5c-28-93.9-51.55-184.4-79.6-273a483.8 483.8 0 0 0-55.25-128 157.2 157.2 0 0 0-124.2-66.6c-38.65 0-76.5 18.15-76.5 58.3 1.8 25.15 21.2 45.5 46.2 48.5a23 23 0 0 0 21.2-12.15c18.95-34.1 37.1-53.75 45.45-53.75 8.3 0 15.15 11.35 28.75 60.55l99.4 366.1-71.5 0.1a34.25 34.25 0 0 0 11.35 38.7h71.15c12.85 44.75 30.45 88 52.4 129a189.3 189.3 0 0 0 163.6 109.75c56.8 0 80.25-27.25 80.25-62.1a57.2 57.2 0 0 0-48.5-56z" horiz-adv-x="1200"/><glyph glyph-name="adobeillustrator" unicode="&#xEA24;" d="M526.5 663.5c-5 15.5-9.5 30.5-14.5 46-5 15.5-9.5 30-13.5 44.5-4 14-7.5 27-11 39h-1c-4.5-21.5-10-43-17-64.5-7.5-24-15-49-23-74-7-25.5-14.5-49-22-70h127c-3 10.55-7 23-11.5 36.05-4.5 13.45-9 27.95-13.5 42.95zM987.5 1185H212.5C95 1185 0 1090 0 972.5v-745c0-117.5 95-212.5 212.5-212.5h775c117.5 0 212.5 95 212.5 212.5V972.5C1200 1090 1105 1185 987.5 1185zM735 358.5h-104.55c-3.45-0.5-6.95 2-7.95 5.5l-41 119H395.5l-38-117.5c-1-4.5-5-7.5-9.5-7.05H254c-5.5 0-7 3.05-5.5 9L409.5 831c1.5 5 3 10.5 5 16.5 2 10.5 3 21.5 3 32.5-0.5 2.5 1.5 5 4 5.5h129.5c4 0 6-1.5 6.5-4l182.5-515c1.5-5.45 0-8-5-8z m170 7.5c0-5.5-1.95-8-6.45-8H800.5c-5 0-7.5 3.05-7.5 8v385c0 5 2.05 7 6.55 7h99c4.5 0 6.45-2.5 6.45-7v-385z m-10.45 451.5c-11.55-12-28.55-18.5-45.55-17.5-16.5-0.5-32.5 6-44.55 17.5-11.5 12.5-17.5 29-17 46-0.5 17 6 33 17.95 44.5 12.1 11.5 28.1 17.5 44.6 17.5 19.55 0 34.45-6 45.5-17.5 11-12 17-28 16.5-44.5 0.5-17-5.5-33.5-17.45-46z" horiz-adv-x="1200"/><glyph glyph-name="adobeindesign" unicode="&#xEA25;" d="M212.5 1185C95 1185 0 1090 0 972.5v-745c0-117.5 95-212.5 212.5-212.5h775c117.5 0 212.5 95 212.5 212.5V972.5C1200 1090 1105 1185 987.5 1185z m565.5-256.5h101.5c2.5 0.5 4.5-1.5 5-3.5v-477c0-9 0.5-19 1-30 1-10.5 1.5-20.5 2-29 0-3.5-1.5-6.5-5-8-26-11-53.5-19-81.5-24-25-4.5-51-7-77-7-37-0.5-74 7-107.5 22.5-31.5 14.5-57.5 38.5-75.5 68-18.5 30.5-27.5 68.5-27.5 114-0.5 37 9 73.5 27.5 105.5 19 32.5 46.5 59.5 79.5 77.5 35 19.5 77 29 126.5 29 2.5 0 6 0 10.5-0.5s9.5-0.5 15.5-1V923c0 3.5 1.5 5.5 5 5.5z m-446.5-43h97.5c3 0.5 6-1.5 6.5-5 0.5-0.5 0.5-1 0.5-1.5v-513c0-5.5-2.5-8-7-8H331c-4.5 0-6.5 2.5-6.5 8V879c0 4.5 2.5 6.5 7 6.5z m411.5-212c-19.5 0-39-4-56.5-13-17-8.5-31.5-21-42.5-37-11-16-16.5-37.5-16.5-63.5-0.5-17.5 2.5-35 8.5-51.5 5-13.5 12.5-25.5 22.5-35.5 9.5-9 21-16 34-20 13.5-4.5 27.5-6.5 41.5-6.5 7.5 0 14.5 0.5 21 1 6.5-0.5 12.5 0.5 18 2.5v220c-4.5 1-9 2-13.5 2.5-5.5 0.5-11 1-16.5 1z" horiz-adv-x="1200"/><glyph glyph-name="adobelightroom" unicode="&#xEA26;" d="M987.5 1185H212.5C95 1185 0 1090 0 972.5v-745c0-117.5 95-212.5 212.5-212.5h775c117.5 0 212.5 95 212.5 212.5V972.5C1200 1090 1105 1185 987.5 1185z m-349.5-819.45c0-2.55-1.45-4.5-3-6.05-1.5-1-3-1.45-5.05-1.45H313c-5.5 0-8 3.05-8 9V878c-0.5 3.5 2 6.5 5.5 7h100c2.5 0.5 5.5-1.5 5.5-4v-421.5h231c5.05 0 6.55-2.45 5.5-7l-14.5-86.95z m312.5 392.95v-97.5c0-4-2.5-5.5-8-5.5-32.45 2-65-4-94.5-17-10-4.5-19.5-10.5-27-18.5v-255c0-5-2-7-6.5-7h-97.5c-4-0.5-7.5 2-8 5.95V643c0 12 0 24.5-0.5 37.5s-0.5 26-1 39c-0.5 11-1.5 22-3.05 33-0.5 2.5 1 5 3.5 5.5 0.5 0.5 1 0.5 2 0h87.5c5 0 9-3.5 10.5-8 2-3.5 3.5-7.5 4-11.5 1-5 1.95-10.5 2.5-15.5 0.5-5.5 1.05-11.5 1.05-18 14.95 17.5 33 32 53.45 43 23 12.5 48.5 18.5 74.5 18 3.45 0.5 6.5-2 7-5.5 0.05-0.5 0.05-1 0.05-2z" horiz-adv-x="1200"/><glyph glyph-name="adobelightroomclassic" unicode="&#xEA27;" d="M987.5 1185H212.5C95 1185 0 1090 0 972.5v-745c0-117.5 95-212.5 212.5-212.5h775c117.5 0 212.5 95 212.5 212.5V972.5C1200 1090 1105 1185 987.5 1185zM428.5 365.55c-0.5-3.05-1.5-5.05-3-6.05-1.5-1-3-1.45-4.5-1.45H135.5c-5 0-7 3.05-7 9V878c0 5 2 7 6.5 7h88.5c3.5 0 5-2 5-5.5v-420h208c4.5 0 6-2.45 5-7l-13-86.95z m280 295.95c0-4-2.5-5.5-7.05-5.5-15.95 1-31.95 0-47.45-3.5-13-3-25.5-7.5-37.5-13.5-9-4.5-17.5-11-24.5-18.5v-255c0-5.05-2-7.05-6-7.05H499c-5 0-7 2.55-7 8v277c0 12 0 24.5-0.5 37.5 0 13-0.5 26-1 39-0.5 11.05-1.5 22.05-3 33.05 0 1.5 0 3 1 4.5 1.5 0.5 2.5 1 4 0.5h79c4.5 0 7.5-2.5 9.5-8 1.5-3.5 3-7.5 3.5-11.5 1-5 1.5-10.5 2-15.5 0.5-5.5 0.5-11.5 0.5-18 13 17 29.5 32 48 43 19.95 12 43.5 18.5 67 18 4.5 0 6.5-2.5 6.5-7v-97.5z m360 80.5c0.5-3-1.05-5.5-3-7.5-2.05-1-4.5-1-6.55 0-11.45 6-23.5 10-36 12-15.5 3-31.5 4-47 4-25.5 0.5-51-6-72.95-19-20.5-12.5-36.5-31-47-52.5-11.45-25-17.05-52.5-16.5-80-0.55-20 2.5-39.55 8-58.45 5-15.55 12.5-30.05 22-43 8.5-11.45 18.95-21.55 31.45-29 12-7 24.5-12.5 38-16 12.5-3.45 26.05-5.5 39.05-5.5 14.45 0 29 0.55 43.45 2.05 12 1.45 24 4.5 35 8.5 4 3 6.5 1.45 8 0.5 2-2 3-5 2.5-7.5v-74.5c0.5-5.95-2.5-11-7.5-13.5-13-5-26.45-8.5-40.5-10-16.95-2.6-33.95-3.6-51.45-3.6-24.5 0-49.5 3.45-72.95 9.95-23.05 6-44.55 16.5-63.55 30-19 13.55-35.5 30.05-48.95 49.5-14.55 21-25 44.05-32.05 68.55-7.5 29-11.5 58.5-11.05 87.95 0 49 9.55 93 29 130 19.05 36.5 47.55 67 83 87.5 35.55 20.5 78.5 31 127.55 31 17 0 34-1 51-3 11.5-1.5 23-4 33.5-8.5 4-2.5 6-7 5.5-12V742z" horiz-adv-x="1200"/><glyph glyph-name="adobephotoshop" unicode="&#xEA28;" d="M492.5 779c-18.5 7.5-38.5 10.5-59 10-13 0-24.5 0-34-0.5-10 0.5-17 0-20.5-0.5v-168c7-0.5 13.5-1 19.5-1h26.5c19.5 0 39 3 57.5 9 16 4.5 30 14 41 26.5 10.5 12.5 15.5 29.5 15.5 51.5 0.5 15.5-3.5 31-11.5 44.5-8.5 13-20.5 23-35 28.5zM987.5 1185H212.5C95 1185 0 1090 0 972.5v-744.95c0-117.5 95-212.5 212.5-212.5h775c117.5 0 212.5 95 212.5 212.5V972.5C1200 1090 1105 1185 987.5 1185z m-369.55-582.5c-19.95-28-47.95-49-80.45-61-34-12.5-71.5-17-112.5-17-12 0-20 0-25 0.5s-12 0.5-21.5 0.5v-160.45c0.5-3.5-2-6.55-5.5-7.05H276c-4 0-6 2.05-6 6.55V879c0 3.5 1.5 5.5 5 5.5 8.5 0 16.5 0 28 0.5 12 0.5 24.5 0.5 38 1s28 0.5 43.5 1c15.5 0.5 30.5 0.5 45.5 0.5 41 0 75-5 103-15.5 25-8.5 48-22.5 67-41 16-16 28.5-35.5 36.5-57 7.45-21 11.45-42.5 11.45-65 0.05-43-9.95-78.5-30-106.5z m354.55-194.5c-14-20-33.55-35.45-56-44.55-24.5-10.45-54.5-15.9-90.55-15.9-22.95 0-45.5 1.95-67.95 6.45-17.5 3.05-35 8.5-51 16-3.5 1.95-6.05 5.45-5.55 9.45v87c0 1.45 0.55 3.5 2.05 4.5 1.45 1 3 0.5 4.5-0.5 19.5-11.5 40-19.55 62-24.5 18.95-5 38.95-7.5 59-7.5 19 0 32.5 2.55 41.5 7.05 8 3.5 13.5 12 13.5 21 0 7.05-4 13.5-12 20-8 6.45-24.45 13.95-48.95 23.55-25.5 9-48.95 21-71 35.95-15.5 11.05-28.45 25.5-38.05 42.5-7.95 16-11.95 33.5-11.45 51.05 0 21.5 6 42 17.05 60.5 12.5 20 30.95 36 52.45 46 23.45 11.95 52.95 17.45 88.45 17.45 20.5 0 41.5-1.5 62-4.5 15-2 29.5-6 43-11.5 1.95-0.5 4-2.5 5-4.5 0.5-2 1-4 1-6v-81.5c0-2-1-4-2.5-5-4.5-1-7-1-9 0-15 8-31 13.5-48 17-18.5 4-37 6.5-56 6.5-10 0.5-20.5-1-30.05-3.5-6.45-1.5-12-5-15.5-10-2.5-4-4-9-4-13.5s2-9 5.05-13c4.5-5.5 10.45-10 17-13.5 11.45-6 23.5-11.5 35.45-16.5 27.05-9 53.05-21.5 77.05-36.5 16.5-10.45 30-24.5 39.45-41.5 8-15.9 12-33.5 11.5-51.45 0.55-23.55-6.45-47-19.45-66.55z" horiz-adv-x="1200"/><glyph glyph-name="adobepremierepro" unicode="&#xEA29;" d="M507.5 779a146.5 146.5 0 0 1-59 10 695 695 0 0 1-54.5-1v-168l19.5-1h26.5c19.5 0 39 3 57.5 9 16 4.5 30 14 41 26.5 10.5 12.5 15.5 29.5 15.5 51.5a72.5 72.5 0 0 1-46.5 73zM987.5 1185H212.5A212.5 212.5 0 0 1 0 972.5v-745c0-117.5 95-212.5 212.5-212.5h775c117.5 0 212.5 95 212.5 212.5V972.5C1200 1090 1105 1185 987.5 1185z m-354.5-582.5c-20-28-48-49-80.5-61-34-12.5-71.5-17-112.5-17l-25 0.5-21.5 0.5v-160.5a6 6 0 0 0-5.5-7H291c-4 0-6 2-6 6.5V879c0 3.5 1.5 5.5 5 5.5l28 0.5 38 1 43.5 1 45.5 0.5c41 0 75-5 103-15.5 25-8.5 48-22.5 67-41 16-16 28.5-35.5 36.5-57 7.5-21 11.5-42.5 11.5-65 0-43-10-78.5-30-106.5z m341 157.5v-97.5c0-4-2.5-5.5-8-5.5a217.5 217.5 0 0 1-96-18.5c-9.5-4.5-18.5-10.5-25.5-18.5v-255c0-5-2-7-6.5-7h-98.5a7 7 0 0 0-8 6v279l-0.5 37.5-1 39c0 11.5-1 22.5-2 34a5 5 0 0 0 3.5 5.5h89c5 0 9-3.5 10-8a151.5 151.5 0 0 0 6.5-46c15 17.5 33.5 32 54 43a155 155 0 0 0 76 19.5c3.5 0.5 6.5-2 7-5.5v-2z" horiz-adv-x="1200"/><glyph glyph-name="adobexd" unicode="&#xEA2A;" d="M941.75 1185H258.25A258.25 258.25 0 0 1 0 926.75v-653.5A258.25 258.25 0 0 1 258.25 15h683.5A258.25 258.25 0 0 1 1200 273.25V926.75A258.25 258.25 0 0 1 941.75 1185z m-305.3-824.55h-114.35c-8 0-13.7 0.3-16.9 5.65-10.75 20.95-21.5 41.75-32.2 62.4a2256.85 2256.85 0 0 1-34.2 63.2 3348.05 3348.05 0 0 0-35.85 65.25h-0.8a2635 2635 0 0 0-33.4-64.4c-11.5-21.45-22.95-42.8-34.2-64A2742.5 2742.5 0 0 0 300 365.35c-2.2-4.85-5.95-5.35-11.35-5.35H178.4c-2.15 0-3.35-0.85-3.6 1.3a8.3 8.3 0 0 0 1.2 5.65l155.35 255.25L180 878.1c-1.65 2.15-1.9 3.9-0.8 5.35a5.75 5.75 0 0 0 4.85 2h113.5a18 18 0 0 0 7.25-1.2 14.6 14.6 0 0 0 4.8-4.45c9.65-21.5 20.4-42.95 32.2-64.4 11.8-21.45 23.75-42.65 35.8-63.6 12.05-20.95 23.2-42.15 33.4-63.6h0.8c10.65 22 21.5 43.45 32.6 64.4 11.1 20.95 22.35 42 33.8 63.2 11.55 21.25 22.65 42.35 33.4 63.2a12.3 12.3 0 0 0 3.2 5.3 11.95 11.95 0 0 0 6.45 1.2h105.45a4.65 4.65 0 0 0 5.6-3.35 4.65 4.65 0 0 0-1.55-4.7l0.05-0.2-149.75-247.15 160.2-262.45c1.05-1.85 1.3-4 0.8-6.05-0.5-1.8-2.35-0.6-5.6-1.15z m384.05 21a401 401 0 0 0-81.3-24.15 431.5 431.5 0 0 0-77.35-7.25 250.3 250.3 0 0 0-107.45 22.5 171.05 171.05 0 0 0-75.3 68.05 217.4 217.4 0 0 0-27.4 113.9 210.1 210.1 0 0 0 27.4 105.45 200.9 200.9 0 0 0 79.75 77.25 256.95 256.95 0 0 0 136.85 28.6c4.3-0.25 9.4-0.65 15.3-1.2V923.2c0 3.75 1.6 5.65 4.85 5.65h101.4a4.3 4.3 0 0 0 4.85-3.65 4.8 4.8 0 0 0 0-1.2v-475.85c0-9.15 0.4-19.05 1.2-29.8 0.8-10.7 1.5-20.35 2-28.95a8.15 8.15 0 0 0-4.8-7.95z m-122.85 290.6c4.5-0.45 8.95-1.25 13.3-2.4v-219.75a81.7 81.7 0 0 0-17.7-3.2 248.25 248.25 0 0 0-20.95-0.8 132.8 132.8 0 0 0-41.5 6.45 85.7 85.7 0 0 0-33.8 20.1 98.65 98.65 0 0 0-22.55 35.4 141.5 141.5 0 0 0-8.45 51.55 110.85 110.85 0 0 0 16.5 63.6c10.65 15.8 25.2 28.55 42.25 37.05 17.5 8.65 36.8 13.1 56.35 12.9 5.55-0.1 11.05-0.35 16.55-0.9z" horiz-adv-x="1200"/><glyph glyph-name="adonisjs" unicode="&#xEA2B;" d="M0 600c0-484 116-600 600-600s600 116 600 600S1084 1200 600 1200 0 1084 0 600Zm242-124.6l188.1 427.75C461.9 975.1 523 1014.2 600 1014.2c77 0 138.1-39.05 169.9-111.15l188.1-427.7c8.6-20.9 16-47.65 16-70.9 0-106.25-74.6-180.85-180.85-180.85-36.3 0-65 9.15-94.15 18.5-29.85 9.6-60.15 19.35-99 19.35-38.5 0-69.5-9.75-99.8-19.3-29.5-9.4-58.4-18.55-93.35-18.55-106.25 0-180.85 74.6-180.85 180.85 0 23.25 7.4 50 16 70.9ZM600 828.5l-185.75-420.3c55.1 25.6 118.55 37.9 185.75 37.9 64.85 0 130.65-12.3 183.2-37.9Z" horiz-adv-x="1200"/><glyph glyph-name="adp" unicode="&#xEA2C;" d="M754.292 600.005a156.5155 156.5155 0 0 0-156.0015-156.001h-60v68.572h60a87.4295 87.4295 0 1 1 0 174.8585h-60V756.0065h60a156.5155 156.5155 0 0 0 156.0015-156.001M421.718 756.0065v-126.858H313.717l-39.429-68.572H490.29v195.43Zm778.292-97.715a214.2875 214.2875 0 0 0-214.2875-214.2875v-116.5725h-185.1445V418.29a268.1165 268.1165 0 0 0-204.0015-90.858H421.718v116.5725H284.574l-68.572-116.5725H0L317.1455 872.579h281.145a279.774 279.774 0 0 0 204.002-90.858V872.579h185.1445a213.945 213.945 0 0 0 212.573-214.2875m-601.7195-262.288a204.516 204.516 0 0 1 185.145 116.5725h87.429v-116.5725h48v116.5725h68.5725a145.544 145.544 0 0 1 145.715 145.7155 147.087 147.087 0 0 1-147.4295 145.7155H869.15v-174.8585h-68.572a205.716 205.716 0 0 1-202.2875 174.8585H358.2885l-238.2875-408.0035h56.572l68.572 116.5725h245.145v-116.5725z m387.432 360.003h-68.572v-68.572h68.572a28.9715 28.9715 0 0 0 29.143-29.143 30 30 0 0 0-29.143-29.143h-68.572v-68.572h68.572a97.715 97.715 0 0 1 97.715 97.715 98.7435 98.7435 0 0 1-97.715 97.715M1081.7235 361.7175a27.429 27.429 0 1 0-27.429 27.429 27.086 27.086 0 0 0 27.429-27.429m6.857 0a34.286 34.286 0 1 1-34.286-34.286 34.286 34.286 0 0 1 34.286 34.286M1056.009 377.1465a6.857 6.857 0 1 0 0-13.715h-6.8575v13.715z m8.5715 1.714a13.0285 13.0285 0 0 1-8.5715 3.4285h-13.715v-41.143h5.1435v15.4285h6.857l8.5715-15.4285h6.857l-10.2855 17.143c1.714 0 3.4285 1.7145 5.143 3.4285a10.286 10.286 0 0 1 1.714 6.8575 9.6 9.6 0 0 1-1.714 10.2855" horiz-adv-x="1200"/><glyph glyph-name="adyen" unicode="&#xEA2D;" d="M582.3515 705.8775v-146.6885c0-6.7025 5.4335-12.1355 12.136-12.1355h23.158V705.8775h88.237v-257.515c0-23.458-19.0165-42.475-42.475-42.475H497.1515v61.7535h120.4955v26.471h-81.054c-23.4585 0-42.475 19.0165-42.475 42.475V705.8775h88.2335Zm-413.062-0.0005c23.4585 0 42.475-19.017 42.475-42.475v-169.29H42.475c-23.458 0-42.475 19.0165-42.475 42.475v47.4025c0 23.4585 19.017 42.475 42.475 42.475h45.7605v-67.275c0-6.703 5.4335-12.136 12.136-12.136h23.158V640.8c0 6.7025-5.4335 12.1355-12.136 12.1355l-108.3595 0.001V705.877Zm289.534 88.2355v-300.0005H289.534c-23.4585 0-42.475 19.0165-42.475 42.475v126.8155c0 23.4585 19.0165 42.475 42.475 42.475h45.7575v-146.6885c0-6.7025 5.4335-12.1355 12.136-12.1355h23.158l0.0025 247.059h88.2355Zm451.643-88.2355a42.475 42.475 0 0 0 42.475-42.475v-47.4025c0-23.4585-19.0165-42.475-42.475-42.475h-45.76v67.275c0 6.702-5.434 12.135-12.136 12.135h-23.1585v-93.745c0-6.703 5.4335-12.136 12.136-12.136h108.3595v-52.9415h-166.2555c-23.4585 0-42.475 19.0165-42.475 42.475v169.29Zm247.0585 0c23.458 0 42.475-19.017 42.475-42.475v-169.29h-88.235V640.8c-0.02 6.694-5.442 12.116-12.136 12.136h-23.158v-158.825H988.235V705.8775Z" horiz-adv-x="1200"/><glyph glyph-name="aerlingus" unicode="&#xEA2E;" d="M1192.85 524.45c-24-77.25-104.05-149.75-200.1-164.8 15.5-24 22.6-53.7 18.85-86.65-10.4-89.45-96.05-161.5-187.9-162.45-62.15-0.45-146.4 26.4-205.75 120.1-53.2 83.3-60.75 215.65-57 255.65-64.95-66.4-105.45-130.9-124.75-175.6-43.3-101.25-59.8-224.6-58.85-282.5 0 0-8-7.55-15.5-9-24 4.25-44.75 13.2-60.3 26.85-18.8 17-23.05 33-23.05 33 28.7 143.6 74.4 233 142.65 335.2 91.8 138 233.5 223.2 401.6 274.5 121.5 37.2 247.7 45.2 334.3-28.25 46.65-38.6 49.45-94.15 35.8-136.05zM477.2 600.7c-28.75-48-107.35-125.25-169.5-165.25-129.5-82.85-222.7-88.5-269.35-58.85a72.55 72.55 0 0 0-14.6 11.75c-36.25 38.15-30.1 105.95 12.25 161.5 20.75 27.3 47.55 46.6 73.5 55.55-20.3 9.45-33.95 29.2-36.75 57-5.65 55.5 36.25 128.5 94.15 158.2 50.85 25.9 160.55 51.8 241.05-68.3 31.55-46.6 59.8-113 69.25-151.6zM1009.2 1105.5c-7 69.2-81 94.65-162.4 59.8-38.6-16.5-72.5-44.25-96.5-75.8 3.75 31.5-5.2 59.3-27.8 75.8-44.75 32.5-126.2 8.5-181.75-51.8-19.3-21.2-82.4-97.5-85.7-209.5-1.4-54.15 22.6-174.25 101.7-257.1 210.95 79.55 324.4 201.5 367.7 251.9 49.95 58.4 71.1 109.7 80.05 147.35 6.6 29.7 5.65 50.85 4.7 59.35z" horiz-adv-x="1200"/><glyph glyph-name="aeroflot" unicode="&#xEA2F;" d="M453.3 563.75c-2.8 6.75-4.85 13.6-7.15 20.3l-333.75-20.3 67.5-34.65z m45.45-62.35c-2.85 2.1-5.75 5-8.5 7.5a91.1 91.1 0 0 0-14.35 15.9l-166.65-33.5 70.95-25.45z m132 14.3c8 1.25 20 6.1 29.4 13.4l-48.4 101.6 50.25 25.5-42.4 39.1c-30.1-14.6-60.3-29-90.45-43.4l21.5-51.25 34.7 16.5z m82.5 212.05c19.35-25 32.75-54.05 39.1-85h-30.5a194.2 194.2 0 0 1-8.6 28.5c-20.5 57.1-62.5 97.8-110.8 131.65-6.35 3.9-12.05 8.2-18.5 11.9 6.45-2.2 12.15-4.3 18.5-6.8 44-18.6 83.1-44.25 110.8-80.25m9.25-325.85c-11.25-5.7-22.75-11-34.1-16.5l-28.25 59.65c-18.5-6.95-38-10.75-57.7-11.3-21.2-1-42.35 2-62.45 8.8l-24.15-57.15c-7.85-0.7-18.7 0-25.6 5.3a18.9 18.9 0 0 0-8.45 11.2c10.2 17.8 19.45 36.15 28.95 54.35-6.35 4.4-12 7.6-17.75 13.5l17.2 21.85c29.1-19 61-29.25 92.25-29.25 31.35-1.1 62.5 9.6 91.6 31.4 9.5-2.75 19.25-5.95 27.05-9-2.9-2.3-5-4.35-7.85-6.8-5.7-6-10.65-12.1-19.9-17.3 9.4-19.75 19.35-39.2 29.15-58.75z m389.25 171.55L1200 632.85h-477.5c0-21.1-3-39.2-9.25-55-18.45-50.25-64.55-74.35-110.8-73.45-45.4 1.35-91.7 26.2-112.2 72.05a137.25 137.25 0 0 0-11.45 56.4H0l87.5-59.4 365.8 20.2c6.9-27.65 19.85-51.85 37-69.75a153.25 153.25 0 0 1 112.15-50.5 139.5 139.5 0 0 1 110.8 49.6c15.6 18.1 27.7 41.3 34.7 69.25z m-24-9.7l-67.6-33.15L750 563.75a475 475 0 0 1 6.45 20.3z m-195.35-73.1l-74-26a17888.5 17888.5 0 0 0-114.3 36.75c3.45 3 6.25 5.85 9.15 9.8 4.25 3.7 7.85 8.8 12.1 12.7z m35.55 4.5l58.85 28.75-243 30.7c-2.15-8.2-8.55-14.9-12.8-21.6z m-655.8 0l-58.95 27.1 244.25 31.75c4.5-7.6 8.55-14.3 13.5-21Z" horiz-adv-x="1200"/><glyph glyph-name="aeromexico" unicode="&#xEA30;" d="M1117.7 588.9c2.2-7.8 0-21.1-13.35-24.45a187 187 0 0 0-33.3-5.5c-18.85-2.25-17.75-17.8-17.75-26.7v-113.2c0-15.5-12.2-67.7-72.15-67.7H843.5c-52.15 0-93.2 43.3-93.2 89.9V709.85c-1.1 46.6 41.05 77.7 78.8 76.6 18.85 0 32.2-5.55 42.15-11.1 22.2-10 46.65-22.2 78.85-37.75 0 0 51 36.65 54.35 38.85 17.75 12.2 34.4 3.35 40-7.75 18.85-36.65 54.35-111 73.25-179.8z m82.1 200.9a164.15 164.15 0 0 1-160.95 166.5c-85.45 2.2-133.15-28.9-150.95-37.75-1.1-1.15-3.3 0-5.5 2.2-15.55 15.5-50 38.85-87.7 49.95-5.55 1.1-6.65 10 0 10a665 665 0 0 0 182-5.55c6.7-1.15 12.25 3.3 8.9 8.85-2.2 4.45-3.35 6.65-6.65 14.45-7.8 15.5-26.65 32.2-51.05 38.85-63.3 17.75-172.05 33.3-269.7 33.3-108.8 1.1-224.2-21.1-253.1-27.75-6.65-1.15-16.65-4.5-18.85-4.5-5.55 0-7.75-7.75-4.45-11.05l11.1-11.1c3.35-4.45 5.55-11.1-1.1-17.75L189.8 817.5H328.5c8.85 0 17.75-7.75 17.75-17.75 0-8.85-7.8-17.75-16.65-17.75H149.85l-54.4-49.95h235.3c8.9 0 16.65-10 16.65-17.75 0-7.75-6.65-17.75-16.65-17.75H55.5L0 645.5h475.05c8.85 0 16.65-10 16.65-17.75 0-10-6.65-18.9-16.65-18.9H0v-49.95h473.95c11.1 0 16.65-10 16.65-18.85 0-7.8-7.8-16.65-17.8-16.65H0v-50h619.3c10 0 16.7-8.85 16.7-18.85 0-8.85-7.8-17.75-16.7-17.75H166.5v-49.95h453.95c8.85 0 15.5-10 15.5-18.85s-7.75-17.75-15.5-17.75l-8.9 1.1H166.5v-49.95h522.75s18.85 43.3 18.85 92.15V729.85c0 26.6 11.1 71 65.5 83.2 1.1 0 3.35 1.15 4.45 1.15 154.25 36.6 313 3.3 402.9-35.5 16.65-7.8 20 5.5 18.85 11.1zM333 129.35h105.5c94.3 1.1 155.35 51 155.35 51H332.95v-51z m0 86.55h303c14.5 14.45 32.2 40 36.65 49.95H332.95v-49.95Z" horiz-adv-x="1200"/><glyph glyph-name="aerospike" unicode="&#xEA31;" d="M0 1200v-1200h1200V1200z m964.75-269.3v-82l-178.8-79.3v-368.15l178.8-80.1v-78.25L283.6 551l-80.35 34.4 80.35 37.15z m-247.4-191.25L372.5 585.85l344.85-154.6Z" horiz-adv-x="1200"/><glyph glyph-name="aew" unicode="&#xEA32;" d="M0 853.75v-504.3h183.7v25.5H26.5V828.25h226.3v25.5z m947.2 0v-25.55h226.3V375h-157.2v-25.55H1200V853.75z m-386.35 44.55v-72.65h76.85v19.15H585.5V854.5h43v16.8h-43v7.85h52.2v19.15H585.5z m88.25 0v-72.65h69.5V847h-44.85V898.3z m77.55 0v-72.65h24.65V898.3z m32.4 0v-21.35h27.85v-51.3h24.65V876.95h27.9v21.35h-52.55z m88.25 0v-72.65h76.85v19.15H872V854.5h43v16.8h-43v7.85h52.2v19.15H872zM572.5 788.75l-189.25-0.3 0.75-173.3 78.5-200.5h257.2l-35.35 88.5H492V700h116z m-64.4-143.1v-88.5h155.35l-35.6 88.5zM313.25 898.3l-37.4-72.65h26.9l6.1 13.9h34.95l6.75-13.9h26.8l-37.65 72.65z m68.15 0v-72.65h69.5V847h-44.85V898.3z m77.5 0v-72.65h69.5V847h-44.8V898.3z m-132.5-22.2l9.35-19.55h-18.85z m814.5-86.5l-107.4-0.15-68.4-173.5-46.9 173.35-107.1-0.15-46-172.15-67.75 172-108.85-0.2 148.3-374.15h81.65l46.9 173.1 46.7-173.1h82.65z m-842.2-1.25l-92.25-0.15-147.3-373.6H168.5l17.1 45h116.65l-34.3 87.35h-47.75l31.75 83.65 85.3-216h108.5z m654.55-409.75c-19.9-0.1-33.15-7-40.25-15.8a38 38 0 0 1 0.25-45.5c30.15-31.25 78.7-6.7 81.6-0.4v31.1h-44.6v-17.2h20.25v-4.3c-5.7-7.6-29.9-7.15-36.1 2.65-6.2 11.25-1.9 18.7 0.4 22.2 13.85 15 37.65 3.1 39.2-0.2l18.25 14.65a66.6 66.6 0 0 1-39 12.8z m-393.85-0.5a108.85 108.85 0 0 1-13.45-1c-14.65-3-23.8-10.35-25.85-17.3-6.4-24.55 28.55-28.35 28.55-28.35 31.15-1.5 28.55-4.9 28.6-6.15-3.25-6.8-21-4.35-26.45-3.5-11.05 2.1-21.5 9.3-21.5 9.3l-13.55-15c38-24.1 69-11.3 74-8.5 15 8.55 14.5 24.2 9.6 31.05-3.8 4.65-15.35 10.35-26.75 11.6-10.2 2.4-30.2 0.55-27.9 7.05 3 6 34.1 2 42.25-4.75l12 14.75c-11.65 8.4-25.85 11-39.55 10.8z m-354.25-2.35l25.2-69.85h25.25l13.9 42.7 13.3-42.7h25.3l25.1 69.85h-24.85l-12.9-43.3-14.85 43.3h-22.2l-14.7-43.7-13.25 43.7z m134.65 0v-69.85h25.1v19.6h15.5l16.2-19.6h29.55l-19.2 22.4c30 11.7 16.7 46.35-11.7 47.5h-3z m94.5 0v-69.85h76.85v16.4H459v9.75h43v16.75h-43v7.9h52.2v19.05z m171.35 0v-20.65h27.85v-49.2h24.7v49.2h27.85v20.65z m87.9 0v-69.85h69.5V325h-44.85v50.8z m78.1 0v-69.85h24.65V375.75z m38.3 0v-69.85h24.65v40.2l38.6-40.2h23.3v69.8h-24.65v-38.05l-35.8 38.05z m-445.2-18.6h26.55c9.5 0.15 9.45-14.3 0-14.6h-26.5z" horiz-adv-x="1200"/><glyph glyph-name="affinity" unicode="&#xEA33;" d="M468.4 1146h188.9l15.9-27.5h54.1L1200 299.8v-0.05l-101.8-173.5H684.5l42-72.25h-18.25l-42 72.3H152.85l-26.3 46.15h-32.6L0 335.1l0.1 0.05 120.5 208.8 111.5 64.4 184.5 319.5-37.1 64.25L468.4 1146z m111.2-282.6L253.3 299.6h312.5l-36.15 62.3 340.4-0.3-290.45 501.8Z" horiz-adv-x="1200"/><glyph glyph-name="affinitydesigner" unicode="&#xEA34;" d="M522 1200L0 295.85v-259.85a36 36 0 0 1 35.65-36h501.15L285 436.15 726 1200z m258 0l-243-420.9 185.9-321.95H1200V1164.1A36 36 0 0 1 1164 1200z m-270-467.65l-103.2-178.75a64.45 64.45 0 0 1 0-64.4c11.5-20 32.8-32 55.85-32h206.25z m-156.1-322L590.8 0h573.55a36 36 0 0 1 35.65 35.9v374.5Z" horiz-adv-x="1200"/><glyph glyph-name="affinityphoto" unicode="&#xEA35;" d="M522 1200l-24-41.55 294-509.25L1110 1200z m642 0l-428.85-742.8H1200V1164.45A36 36 0 0 1 1164 1200zM471 1111.65L288 794.7h366z m78.15-362.85h-0.9c-18-0.25-35-10.8-43.95-26.15l-54.15-94-0.4-0.7a52.6 52.6 0 0 1 0-51 835519.4 835519.4 0 0 1 54.65-94.7c9.2-15.5 26.5-25 44.25-25.05 0.1 0 69-0.1 103.35 0.05 18 0.25 34.95 10.25 43.9 25.6 18.2 31.55 36.55 63.05 54.65 94.7 8.8 15.7 8.5 35.15-0.35 50.55l-0.5 0.75-53.9 93.5-0.3 0.45a52.65 52.65 0 0 1-43.95 26h-0.6zM261 748L0 295.9v-19.5l0.15-243.55a36 36 0 0 1 33.1-32.75L465 748z m147-192.25L86.8 0h642z m137.85-145.3L782.85 0h381.15a36 36 0 0 1 36 36v374.4Z" horiz-adv-x="1200"/><glyph glyph-name="affinitypublisher" unicode="&#xEA36;" d="M522 1200L468 1106.5 1106.8 0h57.2a36 36 0 0 1 36 36v155.95L618 1200z m150 0L1200 285.5V1164a36 36 0 0 1-36 36zM441 1059.7l-99-171.5L848.8 0h204zM312 836.3L238 708.15a97.05 97.05 0 0 1 0-97.1C326.55 457.9 590.8 0 590.8 0h204z m-129-223.5L0 295.9v-259.85c0-19.85 16.15-36 36-36h500.8Z" horiz-adv-x="1200"/><glyph glyph-name="aframe" unicode="&#xEA37;" d="M868.5 346.5H328.5L212 0H150.5l411.5 1200h76l411.5-1200h-65z m-19.5 56.5l-250 748-251.5-749h501.5Z" horiz-adv-x="1200"/><glyph glyph-name="agora" unicode="&#xEA38;" d="M671.965 615.98a67.55 67.55 0 1 0 67.48 67.55 67.615 67.615 0 0 0-67.48-67.55m0 190.03a122.48 122.48 0 1 1 122.475-122.48 122.685 122.685 0 0 1-122.475 122.48m203.465-31.55l-1.505-1.505-1.65-1.575-1.1 1.985-0.955 1.65a58.5 58.5 0 0 1-43.475 30.17l-4.6 0.89v-245.095l4.6 0.615a56.915 56.915 0 0 1 50.4 57.68v64.25a68.1 68.1 0 0 0 60.55 67.14l3.64 0.41V805.94l-4.39-0.48a104.3 104.3 0 0 1-61.72-31.135M122.385 615.915a67.55 67.55 0 1 0 67.55 67.545 67.615 67.615 0 0 0-67.55-67.55m78.655 165.96l-1.03-1.37-1.025-1.375-1.375 1.03-1.3 1.03a122.48 122.48 0 1 1-73.925-220.2 121.175 121.175 0 0 1 73.925 24.89l1.3 0.96 1.375 1.1 1.02-1.445 1.03-1.37a58.425 58.425 0 0 1 39.3-23.59l4.525-0.62v245.1l-4.525-0.62a58.5 58.5 0 0 1-39.3-23.52m876.49-165.955a67.55 67.55 0 1 0 67.615 67.545 67.615 67.615 0 0 0-67.55-67.55m117.885 189.48a58.77 58.77 0 0 1-39.36-23.52l-0.96-1.3-1.03-1.45-1.37 1.035-1.3 1.03a122.48 122.48 0 1 1-73.93-220.07 121.175 121.175 0 0 1 73.925 24.9l1.3 0.955 1.375 1.1 1.03-1.445 0.96-1.37a58.7 58.7 0 0 1 39.36-23.59L1200 561.05V806.01ZM398.89 751.075a67.55 67.55 0 1 0-67.62-67.55 67.615 67.615 0 0 0 67.75 67.55M475.495 588a122.2 122.2 0 0 1 25.03 164.175 98.875 98.875 0 0 1-5.625 7.615 59.385 59.385 0 0 1 26.2 41.625l0.685 4.595H398.415A122.41 122.41 0 0 1 322.22 588a122.135 122.135 0 0 1-14.675-13.715l37.305-41.15a67.55 67.55 0 1 0 89.155-98.065l37.375-41.145a122.345 122.345 0 0 1 3.5 193.8" horiz-adv-x="1200"/><glyph glyph-name="aib" unicode="&#xEA39;" d="M240.625 1199.8c-2.25-0.58-3.98-2.53-4.885-5.365-6.33-20.075-30.06-150.92 36.43-156.45 201.6-16.71 166.9-180.41 314.16-210.74v-53.515H481.64l-47.265-46.485h151.95v-90.915H458.21c-100.525 0-142.46 68.94-125.98 121.385 14.19 45.16 110.515 130.215-6.54 166.7 37.145-101.33-121.485-88.81-121.485-244.725 0-121.73 140.17-166.31 254-166.31h318.56c113.83 0 254 44.58 254 166.31 0 155.915-158.63 143.4-121.485 244.725-117.05-36.485-20.63-121.54-6.445-166.7 16.48-52.445-25.55-121.385-126.07-121.385h-128.125V727.245h151.95l-47.265 46.485h-104.685V827.05c119.5 24.5 133.965 144.165 215.915 202.44 37.055 26.34 103.125 26.465 103.125 26.465s-91.43 67.815-101.27 75.1c-9.82 7.28-32.115 22.75-58.4 22.75-31.775 0-75.21-46.155-105.075-65.23-63.95-40.9-204.675-106.45-454.3 108.5-2.95 2.545-5.755 3.315-8.005 2.73z m573.83-87.885c15.315 0 27.73-12.4 27.73-27.735a27.725 27.725 0 0 0-27.73-27.735 27.715 27.715 0 0 0-27.735 27.735c0 15.335 12.4 27.735 27.735 27.735zM294.725 402.245L135.65 0H218.75l36.815 94.335h156.35L449.215 0h84.38l-150.685 381.25c-4.92 12.47-17.26 21-30.665 21z m258.5 0v-18.36c2.36-1.015 4.78-2.15 6.93-3.125 10.11-7.14 17.285-24.52 17.285-44.92l0.1-321.485c0-7.91 6.35-14.355 14.255-14.355h91.215v18.36c-2.38 1.05-4.845 2.15-7.035 3.125-10.11 7.14-17.285 24.625-17.285 45.02V387.9c0 7.89-6.35 14.35-14.255 14.35z m191.6 0V0h190.235c80.085 0 129.3 53.685 129.3 109.08 0 43.91-29.825 81.645-72.66 98.73 28.95 19.865 47.655 50.64 47.655 85.35 0 55.38-49.21 109.085-129.3 109.085z m75.78-69.435h92.48c26.7 0 48.34-21.66 48.34-48.335 0-25.895-20.39-46.93-46-48.15h-94.82z m-486.33-44.725l50-123.825H283.985z m486.33-122.165h119.14c26.7 0 46.78-21.47 46.78-48.15 0-26.675-21.745-48.335-48.44-48.335h-117.48Z" horiz-adv-x="1200"/><glyph glyph-name="aidungeon" unicode="&#xEA3A;" d="M0 1200v-1200h1200V1200z m282.3-650.1H360.5c5.85 0 10.65-4.75 10.65-10.65v-6.15c0-5.85-4.8-10.5-10.65-10.5h-22.85v-84h22.85c5.85 0 10.65-4.8 10.65-10.65v-6.15c0-5.9-4.8-10.55-10.65-10.55H282.3a10.5 10.5 0 0 0-10.5 10.5v6.2c0 5.85 4.65 10.6 10.5 10.6h23v84h-23a10.5 10.5 0 0 0-10.5 10.55v6.15c0 5.9 4.65 10.65 10.5 10.65z m-141.65-1.15h47.9c6.5 0 9.5-4.65 11.75-11.75l37.8-98.7h3c6.5 0 11.75-5.25 11.75-11.75v-4.5c0-6.5-5.25-11.7-11.75-11.7h-40.8a11.7 11.7 0 0 0-11.75 11.7v4.5c0 6.5 5.25 11.75 11.75 11.75h5.05l-3.7 11.2h-48.45l-3.9-11.2h8.9a10 10 0 0 0 10.05-10.1v-6.6a10 10 0 0 0-10-10.1H117.5a10 10 0 0 0-10.1 10.1v6.6a10 10 0 0 0 10.1 10.1h5.65l31.25 85.35h-13.8a11.7 11.7 0 0 0-11.7 11.7v1.65c0 6.5 5.25 11.75 11.75 11.75z m37.4-27.85l-15.85-45.4h30.85z m705.45-194.25h0.1c36.8 0 66.65-32.45 66.6-72.45 0-40-29.85-72.4-66.6-72.35-36.8 0-66.6 32.35-66.6 72.35-0.05 40 29.75 72.4 66.5 72.5z m-235.5-0.1c5.9 0 10.6-4.85 10.6-10.95 0-11.3-0.2-22.35 0-33.55 0 0 1.8-13.4-11.15-13.2-14.25 0.2-9.9 13.15-20.4 25.7-4.25 5-7 6.2-18.85 6.35-19.35 0.15-36.8-8-36.7-45 0-19.55 7.15-46.55 34-47.8 7.8-0.35 22.6 3.6 22.6 3.6v17.4h-14.45a10.9 10.9 0 0 0-10.9 10.95v4.1c0 6.05 4.85 10.95 10.9 10.95h48.85c6.05 0 10.95-4.9 10.95-11v-4.05a10.9 10.9 0 0 0-10.95-10.95h-3.4l0.2-34.3s-15-13-54.4-12.65c-49.75 0.35-67.8 39-67.7 71.85 0.15 42.75 30.5 71.65 62.2 72.05 16.6 0.25 29.15-3.9 38.9-8.5 1 5 4.65 9 9.75 9z m43.4-3.1h99.25c6 0 10.9-4.9 10.9-10.95v-32a10.9 10.9 0 0 0-10.9-11h-4.3a10.9 10.9 0 0 0-11 11v15.6h-52.2c0-0.3 0.3-0.5 0.3-0.8v-25.4h18.75v2.75c0 6.05 4.85 10.95 10.95 10.95h2.7c6.05 0 10.95-4.9 10.95-10.95v-31.65a10.9 10.9 0 0 0-10.95-10.9h-2.75a10.9 10.9 0 0 0-10.9 10.9v2.75h-18.75v-30.85c0-0.15-0.2-0.25-0.2-0.4h52.15v15.65c0 6 4.85 10.9 10.95 10.9h4.3c6 0 10.9-4.85 10.9-10.9v-32.05a10.9 10.9 0 0 0-10.9-10.95h-99.25a10.9 10.9 0 0 0-10.95 10.95v5.5c0 6 4.9 10.9 11 10.9l2.7 0.4v82.4c0 0.3 0.25 0.5 0.3 0.8h-3a10.9 10.9 0 0 0-11 10.95v5.45c0 6.05 4.9 10.95 11 10.95z m-513.2-0.1c21.3-1 63.9-10.1 64.75-67.5 1.25-78.8-75.1-69.9-75.1-69.9h-40.5a10.9 10.9 0 0 0-10.95 10.9v3.5c0 6.1 4.9 11 10.95 11h3.1l0.7 86.3h-3.4a10.9 10.9 0 0 0-11 10.95v3.5c0 6.05 4.95 10.95 11 10.95 17 0 33.65-0.35 50.5 0.3z m86.25 0h37.3c6.05 0 10.95-4.9 10.95-10.95v-4.4a10.9 10.9 0 0 0-10.95-10.95h-4l0.2-70.7c-0.1-10.55 8.8-17.15 23.5-17.35 12.65-0.25 23.4 6.6 23.55 17.65v70.2h-3.7a10.9 10.9 0 0 0-10.95 11v4.35c0 6.05 4.9 10.95 11 10.95h37.15c6.1 0 11-4.9 11-10.95v-4.4a10.9 10.9 0 0 0-11-10.9h-4l-0.2-64.5c0-24.7-12-50.75-53.1-50.75-38.25 0-54.5 22.85-53.8 51.05l-0.3 64.35h-2.65a10.9 10.9 0 0 0-10.95 11v4.35c0 6.05 4.9 10.95 11 10.95z m213.3-0.3h40.8c6.05 0 10.95-4.9 10.95-10.95v-3.8a10.9 10.9 0 0 0-10.95-10.95h-3.7l0.85-108c-0.7-2.65-2-4.3-6.15-5.25a46.4 46.4 0 0 0-15.4-0.3c-4.5 1.5-7 4.45-9.7 7.5l-48 80.85 0.5-61h10.6c6.05 0 10.95-4.9 10.95-11v-3.75a10.9 10.9 0 0 0-10.95-11h-40.8a10.9 10.9 0 0 0-10.95 11v3.8c0 6 4.9 10.9 10.95 10.9h2.15l0.5 87h-1.8a10.9 10.9 0 0 0-10.9 11v2.7c0 6.1 4.85 11 10.9 11h25c6.1 0 7.9-2.7 12.3-11l42.6-75.75 0.6 61.3h-10.35a10.9 10.9 0 0 0-11 10.95v3.8c0 6.05 4.9 10.95 11 10.95z m562.5 0h40.8c6.05 0 10.95-4.9 10.95-10.95v-3.8a10.9 10.9 0 0 0-10.95-10.95h-3.7l0.85-108c-0.7-2.65-2-4.3-6.15-5.25a46.4 46.4 0 0 0-15.4-0.3c-4.5 1.5-7 4.45-9.7 7.5l-48 80.85 0.5-61h10.6c6.05 0 10.95-4.9 10.95-11v-3.75a10.9 10.9 0 0 0-10.95-11h-40.8a10.9 10.9 0 0 0-10.95 11v3.8c0 6 4.9 10.9 10.95 10.9h2.15l0.5 87h-1.8a10.9 10.9 0 0 0-10.9 11v2.7c0 6.05 4.85 10.95 10.9 10.95h25c6.1 0 7.9-2.65 12.35-10.95L1050 236.05l0.6 61.3h-10.35a10.9 10.9 0 0 0-11 10.95v3.8c0 6.05 4.9 10.95 11 10.95z m-188.4-68.85c0-25 14.25-45.2 31.75-45.2 17.5 0 31.7 20.2 31.75 45.2 0 25-14.2 45.3-31.75 45.3-19.5 0-31.6-25.15-31.75-45.3z m-689.15 43.45l0.3-85.35c17.35 1.3 46.2-0.35 46.1 43.05-0.15 42-33.65 42.8-46.4 42.3z" horiz-adv-x="1200"/><glyph glyph-name="aiohttp" unicode="&#xEA3B;" d="M0 600C0.5 931.15 268.85 1199.5 600 1200c331.15-0.5 599.5-268.85 600-600-0.5-331.15-268.85-599.5-600-600C268.85 0.5 0.5 268.85 0 600z m600-550.2a547.4 547.4 0 0 1 340.5 118.35l-15.15 32.8a37.3 37.3 0 0 0-31.05 67.35l-36.1 78.15a62.2 62.2 0 0 0-77.15 36.7l-123.7-31.65v-0.6a37.35 37.35 0 1 0-73.75 8.9L410 434.5a62.2 62.2 0 0 0-63.9-30.35l-37.4-129.5a37.35 37.35 0 0 0-8.5-69.4l2.6-68A546.75 546.75 0 0 1 600 49.85zM287.5 147.5l-2.2 57.1a37.35 37.35 0 0 0 9 74.1l37.45 129.5a62.25 62.25 0 0 0-37.95 57.35l-233.7 28.3A551.75 551.75 0 0 1 287.5 147.5z m665 30.4a554.15 554.15 0 0 1 137 171.05l-191.3 37.55a62.25 62.25 0 0 0-26.4-33.6l36.6-79.4a37.35 37.35 0 0 0 29.9-65l14.25-30.6z m143.9 184.9A546.7 546.7 0 0 1 1150.2 600a547.5 547.5 0 0 1-124.6 348.25L950 922.45a37.45 37.45 0 0 0-36.3-46.1 37.35 37.35 0 0 0-34.1 22.1L722.45 845a124.6 124.6 0 0 0-50.75-136.85l142.85-245.05a62.25 62.25 0 0 0 86.6-61.8l195.2-38.5z m-442.3 3.4l123.25 31.5a62.1 62.1 0 0 0 24.3 57.85l-142.8 245a123.9 123.9 0 0 0-122.2 5.5l-138.5-194.6a62.1 62.1 0 0 0 17.7-63.15l174.15-74.85a37.3 37.3 0 0 0 64.1-7.15v-0.1z m-358.5 114.2a62.3 62.3 0 0 0 90.5 39.7l138.5 194.5a124.2 124.2 0 0 0-46.5 97c0 30.15 10.95 59.3 30.85 82L323.8 1075.65a550.65 550.65 0 0 1-266.5-566.4l238.25-28.9z m422 378.6l158.7 54.15v0.5a37.35 37.35 0 0 0 67.25 22.4l71.65 24.45A549.1 549.1 0 0 1 337.25 1083.35l182-179.05a124.5 124.5 0 0 0 198.35-45.2l-0.1-0.15z" horiz-adv-x="1200"/><glyph glyph-name="aiqfome" unicode="&#xEA3C;" d="M287.4 740.25c30.35-13.85 49.6-56.95 52-117.1 1.65-39.85-3-69.95-15.15-96.25-28.2-60.45-78.9-62.6-108.15-4.6-12.5 24.4-17.9 51.25-17.9 88.9 0.3 40.15 4.6 63.7 17.35 89.75 18.15 37.1 44.75 51.75 71.85 39.3z m488.4-3.8c29.55-19.5 49.9-81.35 45.8-138.8-4.6-68.55-34.95-117.9-71.8-117.9-20.35 0-41.2 17.9-54.75 47.15-22.5 48.8-21.15 130.65 3.25 178.35 18.15 35.8 51.2 49.05 77.5 31.2zM619.4 1198.55c11.15-1.6 12.75-3 19-14.6 9.2-16.8 14.9-22.8 32-33.9 15.7-10 15.7-10.55 10.3-36.3-4.65-21.7-1.95-43.1 8.1-62.35 14.65-29 55.55-59.35 93-68.85 14.05-3.8 19.75-4.05 36.85-1.1 11.1 1.65 21.95 2.45 24.1 1.65 2.45-1.1 8.15-10 13-20.05 10.85-23.35 38-51.25 59.65-61.3 35.25-16.5 73.5-15.7 110.3 2.5 10.3 5.1 20.6 8.35 23.05 7.55 2.15-0.8 8.4-7 13.8-13.55 5.45-6.8 16.3-15.45 23.9-19.25 12.45-6.5 17.05-7.3 37.65-7 16.25 0.25 24.4-0.6 26.3-3 7.85-9.5 29.5-110.05 38.75-179.2 8.15-62.05 8.95-200.85 1.35-261.5-10-82.2-24.9-152.65-45.5-216.05-14.65-45-27.65-74.55-54.5-122.8C1049.85 16.25 1034.1 0 1004.3 0a100.5 100.5 0 0 0-24.65 3c-17.65 5.95-44.75 26.8-86.5 66.4-49.3 46.6-70.2 62.85-96.2 75.6-31.7 15.75-62.9 17.1-90 3.8-6.5-3.25-24.9-17.9-40.35-32.8-32.5-30.9-45-37.65-73.5-39.55-35.2-2.2-55 6.75-110.3 49.6-23.55 18.15-40.9 26.3-60.15 27.9-23.3 1.9-40.4-4.05-78.05-26.85-37.15-22.5-56.95-29.5-82.7-29.5-53.65 0-100.3 33-148.25 104.85C60.25 283 21.2 395.5 8.5 506.85c-4.9 42-5.7 126.85-1.65 168.35 21.4 213.3 124.7 376.5 291.4 459.65C350.25 1160.85 407.45 1179.05 472.75 1190.15c48.8 8.15 120.65 12.2 146.65 8.4z m-111.95-74C382 1112.1 260 1044.35 186.55 946.75c-76.45-101.65-119-269.95-103.5-409.5 10-92.5 48.2-197.35 99.45-274.35 26-39 36-49.85 54.2-58.8 27.65-13.55 56.1-8.7 91.35 15.45 31.45 21.7 64 31.15 98.9 29.25 35.5-2.15 49.1-9.2 102.75-55 31.7-27.1 59.1-30.1 89.7-9.75 6.8 4.6 22 16.25 33.9 26 38.2 31.7 67.5 42.85 113.85 43.1 58 0.3 95.65-21.4 149.05-86.5 43.4-52.5 60.2-63.4 84-54.45 39.05 14.9 78.35 104.1 104.1 235.8 34.15 174 27.65 326.1-17.6 418.5-14.65 30.4-32.25 49.9-48.8 54.75-10.3 3-13.5 2.75-35.2-4.3-20.9-6.8-28.2-7.9-55.3-7.9-25.5 0-34.45 1.4-49.6 6.5-29 9.8-42 21.7-74.3 67.8-14.9 21.4-27.9 28.45-63.15 35.5-65 12.5-91.6 23.85-114.65 48.8-21.7 23.3-35.5 54.5-45.5 102.7-2.75 14.1-7.6 29.55-10.6 34.45-11.1 17.85-37.95 24.4-82.15 19.75z" horiz-adv-x="1200"/><glyph glyph-name="airasia" unicode="&#xEA3D;" d="M577 475.5c-63.9 0-113.2 49.9-113.2 113.8 0 62.6 49 113.5 113.2 113.5 61.6 0 111.9-50.9 111.9-113.5 0-63.9-50.25-113.85-111.95-113.85z m153.7 392.7l-10.7-49.9c-29.5 59-117.4 64.85-164.75 64.85-147.6 0-276.35-142.05-276.35-337.3 0-157 93.75-255.55 211.5-255.55 65.8 0 121.6 15.2 167.65 70l-12-55.1h185.55l84.6 563c-61.9 0.05-124.1-0.5-185.5 0zM600 1200c331.5 0 600-268.5 600-600s-268.5-600-600-600S0 268.5 0 600 268.5 1200 600 1200Z" horiz-adv-x="1200"/><glyph glyph-name="airbnb" unicode="&#xEA3E;" d="M600.05 286.25c-67.65 84.85-107.4 159.2-120.65 222.85-13.15 51.35-8 92.4 14.55 123.25 23.85 35.5 59.4 52.8 106.05 52.8s82.15-17.25 106-53.15c22.3-30.5 27.9-71.6 14.3-123.25-14.55-64.9-54.25-139.25-120.6-222.9z m480.05-57c-9.25-62.3-51.7-114-110-139.15-112.65-49-224.15 29.15-319.6 135.2 157.85 197.55 187 351.4 119.25 450.9-39.75 57-96.65 84.75-169.7 84.75-147.2 0-228.15-124.5-196.35-269.1 18.5-78.25 67.6-167.15 145.85-266.6-49-54.25-95.5-92.8-136.6-116.65-31.8-17.2-62.25-27.9-91.4-30.45-133.95-19.95-238.9 110-191.25 244 6.6 17.25 19.75 49 42.25 98.05l1.25 2.65c73.2 158.9 162.1 339.5 264.25 539.75l2.65 6.6 29 55.8c22.5 41.1 31.75 59.5 67.55 82.15 17.3 10.5 38.5 15.75 62.3 15.75 47.7 0 84.9-27.9 100.8-50.35 7.9-11.95 17.25-27.85 29.1-47.65l27.9-54.45 4-7.95c102.05-200.2 191.05-380.4 263.95-539.7l1.3-1.25 26.65-61 15.9-38.2c12.15-30.65 14.7-61.1 10.65-92.9z m61 119.5c-9.3 29.15-25.25 63.55-45 104.7v1.5c-94.45 200.3-182.1 380.4-265.35 542.2l-5.55 8.15C765.85 1126.95 723.4 1200 600.05 1200c-122 0-173.8-84.75-226.75-194.9l-4.05-8c-83.45-161.8-171.05-342.15-265.15-542.35v-2.65l-27.95-61c-10.5-25.2-15.85-38.4-17.25-42.35C-8.6 163 130.55 0 299 0c1.35 0 6.6 0 13.25 1.35h18.6c87.5 10.65 177.7 66.25 269.2 165.85 91.45-99.45 181.75-155.2 269.1-165.85h18.6c6.65-1.35 11.95-1.35 13.25-1.35 168.5-0.15 307.6 163.05 240.1 348.75z" horiz-adv-x="1200"/><glyph glyph-name="airbus" unicode="&#xEA3F;" d="M553.1 635.3c0-37-19.45-58.1-49.65-65.25-0.35 0 48.35-76.5 48.35-76.5h-59L421.5 607.35h50.3c21.75 0 29.85 12 29.85 26.6 0 14.25-7.8 26.6-29.5 26.6H413.3v-167.1H361.4V706.65h110.3c54.8 0 81.4-30.8 81.4-71.35M274.5 493.5h51.9V706.65H274.5zM108.7 706.65L0 493.5h58.4l17.6 35.7h87.5l-21.75 44.75h-43.65l32.3 65.6h0.65l72.65-146h59.7L154.75 706.6z m633.95-102.5c20.45-7.2 34.4-26 34.4-51 0-36-28.85-59.7-73-59.7h-126.25V706.65h121.4c43.15 0 68.8-23.05 68.8-57.4-0.05-21.4-8.8-36-25.35-45.1m-112.9 19.8h69.1a18.4 18.4 0 0 1 18.8 18.8 18.35 18.35 0 0 1-18.5 18.8h-69.4z m70.7-85.7a21.75 21.75 0 0 1 22.4 22.05c0 12.35-9.75 21.4-22.4 21.4h-70.7v-43.45h70.7m240.4 49.3c0-32.35-14.9-50.3-44.5-50.3-29.15 0-44.05 18-44.05 50.3V706.65h-53.2v-115.2c0-65.85 34.7-102.5 97.3-102.5s97.65 36.65 97.65 102.5V706.65h-53.2z m191.7 34.45c-49.25 12-60 13.15-60 27.25 0 10.9 12.3 16.2 33.1 16.2 27.5 0 56.95-6.9 73.65-17.2l16.55 43.45c-21.4 11.35-52.9 19.45-89.55 19.45-54.85 0-85.65-27.25-85.65-63.9 0-39.5 23-55.5 75.9-66.9 41.2-9.1 49.95-14.75 49.95-26.3 0-12.5-11.35-18.15-33.75-18.15a178.25 178.25 0 0 0-85.3 20.75l-15.9-45.4c25.65-13.65 63.9-22.4 102.5-22.4 53.85 0 85.95 25 85.95 66.85 0.05 33.65-21.65 55.25-67.5 66.3" horiz-adv-x="1200"/><glyph glyph-name="airbyte" unicode="&#xEA40;" d="M415.4 1054.3C543.8 1198.65 756.4 1240.95 931.2 1157.6c232.2-110.5 316.95-392.3 190.45-609.7l-284.35-488.5c-15.95-27.35-42.1-47.2-72.75-55.35-30.65-8.15-63.35-3.95-90.9 11.8l344.35 591.6c91.75 157.75 30.4 362.15-137.9 442.7-126.4 60.4-280.65 30.2-374.1-73.65-51.55-56.95-80.4-130.65-81.4-207.25-0.9-76.6 26.2-150.95 76.2-209.25 8.95-10.5 18.6-20.3 28.95-29.4l-201.05-345.95c-7.85-13.65-18.25-25.5-30.85-34.95-12.45-9.45-26.7-16.45-41.9-20.55-15.15-4.05-31.05-5-46.5-3.05-15.65 2.05-30.7 7.15-44.25 14.9l218.2 375.65C352.05 561.5 329.5 611.85 317 665l-133.75-230.6c-15.85-27.25-42.1-47.2-72.65-55.35-30.75-8.2-63.45-3.95-90.9 11.85L365.5 985.8c14.5 24.35 31.1 47.4 49.9 68.5Zm399.15-189.2c83.3-47.8 112.1-154.05 63.85-236.7L546.8 59.5c-15.85-27.35-42-47.25-72.75-55.45-30.6-8.1-63.4-3.95-90.8 11.85l307.95 529.8c-24.75 5-48 15.4-68.25 30.5-20.25 15-37.15 34.1-49.05 56.1-12.1 22.05-19.25 46.4-20.9 71.4-1.65 25.05 2.25 50.1 11.2 73.5 9 23.4 23.1 44.65 41.2 62.1 18.1 17.5 39.75 30.9 63.65 39.2 23.7 8.4 49.1 11.5 74.25 9.15 25.1-2.3 49.45-10 71.25-22.55Zm-120.6-106.95c-5.7-4.35-10.5-9.8-14.1-16-5.3-9.3-7.9-19.9-7.2-30.65 0.7-10.75 4.6-21 11.2-29.6 6.5-8.35 15.5-14.85 25.75-18.35 10.35-3.4 21.35-3.85 31.8-1 10.45 2.8 19.8 8.6 27 16.7 7.15 8.05 11.7 18 13.15 28.7 1.35 10.65-0.4 21.5-5.25 31.1-4.85 9.75-12.3 17.7-21.65 23-6.3 3.6-13.15 5.9-20.3 6.8-7.15 1-14.3 0.5-21.2-1.3-7-1.9-13.55-5.05-19.2-9.4Z" horiz-adv-x="1200"/><glyph glyph-name="aircall" unicode="&#xEA41;" d="M1172.55 904.7a348.9 348.9 0 0 1-268.75 269.5C836.35 1189.8 725.4 1200 600 1200S363.65 1189.8 296.2 1174.2a348.9 348.9 0 0 1-268.75-269.5C11.85 837 1.7 725.75 1.7 600s10.15-237 25.75-304.7a348.9 348.9 0 0 1 268.75-269.5C363.65 10.2 474.6 0 600 0s236.35 10.2 303.8 25.8a348.9 348.9 0 0 1 268.75 269.5c15.55 67.7 25.75 178.9 25.75 304.7 0 125.75-10.15 237-25.75 304.7z m-293.65-619.8l-0.15-0.05c-21.4-7.6-58.25-14.15-105.1-18.85l-7.35-0.7a22.2 22.2 0 0 0-22.5 13.55 90.8 90.8 0 0 1-64.8 53.7c-17.55 4.05-46.4 6.7-79 6.7s-61.45-2.65-79-6.7a90.85 90.85 0 0 1-64.55-53.1 23.3 23.3 0 0 0-23.55-14.05 400 400 0 0 1-6.45 0.6c-46.9 4.7-83.8 11.2-105.25 18.85l-0.15 0.05a38 38 0 0 0-24.6 35.65c0 1.6 0.15 3.3 0.25 4.9 3.65 48.95 33.3 163.6 77.6 294.5C425 769.55 477.95 890.65 501.85 914.3a51.45 51.45 0 0 0 20.2 13l0.2 0.1c15.7 5.3 44.6 8.9 77.7 8.9 33.15 0 62.05-3.55 77.7-8.9l0.25-0.1a51.25 51.25 0 0 0 20.25-13c23.9-23.6 76.85-144.75 127.45-294.35 44.3-130.85 73.95-245.5 77.6-294.5 0.1-1.6 0.25-3.3 0.25-4.9a38 38 0 0 0-24.55-35.65z" horiz-adv-x="1200"/><glyph glyph-name="aircanada" unicode="&#xEA42;" d="M619.7 352.1c0 39.45 16.9 45.1 56.35 22.55a2711.75 2711.75 0 0 1 135.2-73.25c0 22.5 22.55 39.45 62 28.2 39.45-11.3 78.85-16.9 78.85-16.9s-22.5 50.7-33.8 73.2c-16.9 39.45 0 62 16.9 67.6 0 0-22.5 16.9-39.45 28.2-33.8 22.5-28.15 50.7 5.65 62 45.1 22.5 107.05 45 107.05 45-16.9 11.3-39.45 39.5-16.9 78.9 22.5 33.8 62 84.5 62 84.5H946.5c-39.5 0-50.75 33.8-50.75 56.35 0 0-61.95-45.05-107-73.25-39.5-28.15-73.25 0-67.6 45.1a1850 1850 0 0 1 16.9 146.5c-22.55-22.55-62-16.95-84.5 16.85-28.2 56.35-56.35 124-56.35 124S569 1000 540.85 943.6c-16.9-33.8-56.35-39.4-78.9-22.5a1850 1850 0 0 1 16.9-146.5c5.65-39.45-28.15-67.6-67.6-39.45-45.05 28.2-112.65 73.25-112.65 73.25 0-22.5-11.3-50.7-50.7-56.35H140.85s39.45-50.7 62-84.5c22.5-33.8 0-67.6-16.95-78.85 0 0 56.35-28.2 107.05-45.1 33.8-16.9 45.1-39.4 5.65-62-11.3-11.25-39.45-28.15-39.45-28.15 22.5-5.6 39.45-28.15 22.5-67.6-11.25-22.5-33.75-73.2-33.75-73.2s39.4 11.25 78.85 16.9c39.45 11.25 56.35-11.3 62-28.2 0 0 67.6 39.45 135.2 73.25 33.8 22.5 56.35 11.25 56.35-22.5v-95.8c0-56.35-11.3-112.7-28.2-146.5-253.5 28.2-467.6 231-467.6 501.4 0 276.05 231 501.45 518.3 501.45 287.35 0 518.35-225.4 518.35-501.45 0-259.15-202.85-473.2-462-501.4v-67.6C963.4 70.4 1200 312.7 1200 611.25 1200 932.4 929.6 1185.9 597.2 1185.9 270.4 1185.9 0 932.4 0 616.9c0-276.05 208.45-507 484.5-557.75 45.1-11.25 73.25-16.9 101.4-45.05 28.2 56.3 33.8 169 33.8 231Z" horiz-adv-x="1200"/><glyph glyph-name="airchina" unicode="&#xEA43;" d="M337.5 31.15c171.55-48 368.05 72.45 368.05 272.1v235.65c0 68.85 57.35 159.5 160.6 159.5 108.5 0 160.05-97.45 160.05-159.5 0-39.6-15.65-118.85-90.2-118.85-59.4 0-97.5 60.5-78.7 110-4.15-16.65 4.65-32.85 22.45-32.85 17.15 0 26.6 16.2 23.4 36.5 0 4.15-5.2 41.7-46.95 41.7-34.9 0-46.35-31.8-46.35-47.4v-209.65c0-224.15-244-389.9-472.35-287.2M175.4 200.5s115.15-116.8 266.9-28.65c100.6 58.35 103.75 179.9 103.75 179.9v271.55s-4.2 136.1 118.3 233.6c85.55 67.25 164.8 62.6 219.5 69.35 140.3 17.2 202.85 105.8 202.85 105.8 1.55-15.1-13.6-177.75-189.25-224.15-36-9.4-228.9 9.35-228.9-213.75v-269c0-56.3-13.5-155.9-118.85-226.3-108.45-71.95-284.15-60.5-374.3 101.65M52.35 762.05H192.5c0 25 21.4 73.55 76.15 73.55 21.35 0 25-4.75 52.6 1 36 12 52.15 32.85 59.5 49.5 0 0 14-59.35-42.25-90.65-31.85-17.25-80.8-3.7-80.8-3.7s-39.6 5.75-44.85-29.65c22.45 0 57.35-22.45 57.35-61v-326.4c0-23.45 18.75-48 47.45-48a47.5 47.5 0 0 1 47.45 48v228.9c0 337.85 262.75 478 415.5 489.5 126.65 9.4 212.2-2 367 106.9 0 0-48.5-189.8-267.9-235.15-40.2-8.3-161.2 5.75-274.85-112.6-90.15-93.85-99.5-180.4-99.5-294.55v-201.75c0-88.1-70.95-177.25-179.35-177.25-104.8 0-178.3 83.4-178.3 177.25v342.5c0 28.15-20.3 53.7-52.7 53.7h-42.7Z" horiz-adv-x="1200"/><glyph glyph-name="airfrance" unicode="&#xEA44;" d="M688.8 1005L259.2 383.4C202.55 301.55 110.4 222.6 0 213.95v-18.95h477.6c127.2 0 219.85 82.8 280.8 174L1200 1005Z" horiz-adv-x="1200"/><glyph glyph-name="airplayaudio" unicode="&#xEA45;" d="M595.4 1190.85a600.6 600.6 0 0 1-402.2-158.6c-244.1-223.75-258.3-604-34.6-848.1 10.2-12.2 22.4-22.35 34.6-34.6a15.75 15.75 0 0 1 20.4 2l26.5 30.5a16 16 0 0 1 0 22.4C26.5 401.75 12.15 737.35 211.5 950.9 410.85 1164.45 744.45 1178.65 958 979.3c213.55-199.3 227.75-532.75 28.4-746.35-10.15-10.15-18.25-20.35-28.4-28.5a16 16 0 0 1 0-22.35l26.5-30.55a18.5 18.5 0 0 1 22.3-2c244.1 225.8 258.3 604.05 34.6 848.1a599 599 0 0 1-446 193.2z m19.35-175.9A430.35 430.35 0 0 1 307.15 900c-172.9-160.65-183-431.15-22.35-604 6.1-6.15 12.15-14.25 20.3-20.35a15.95 15.95 0 0 1 22.35 0l26.5 30.5a16 16 0 0 1 0 22.3A363.15 363.15 0 0 0 240 590.85c0 197.3 160.6 358 357.9 358s358-162.65 358-359.95a360.35 360.35 0 0 0-111.9-260.45 15.95 15.95 0 0 1 0-22.35l26.45-30.5c6.1-6.05 16.25-8.1 22.35-2a429.95 429.95 0 0 1 20.4 606.1 424.7 424.7 0 0 1-298.5 135.25z m-13.3-165.8A259.9 259.9 0 0 1 417 776c-103.75-99.65-105.75-262.35-6.1-366.1l6.05-6.15a15.95 15.95 0 0 1 22.35 0l26.5 30.55a16 16 0 0 1 0 22.4 190.7 190.7 0 0 0-54.9 134.15 186.6 186.6 0 0 0 187.1 187.1 186.6 186.6 0 0 0 187.1-187.1c0-50.85-20.3-97.55-56.95-134.15a16 16 0 0 1 0-22.4l26.5-30.5a16 16 0 0 1 22.35 0c101.7 99.6 105.8 262.3 6.15 366.05a256.4 256.4 0 0 1-181.65 79.3z m0.3-387.2a29.95 29.95 0 0 1-20.1-7.3l-2-2.05-357.95-402.75a25.3 25.3 0 0 1 2.05-34.5 21.85 21.85 0 0 1 14.15-6.2h718a24.75 24.75 0 0 1 24.45 24.4 23.15 23.15 0 0 1-6.05 16.3l-354 402.75a25 25 0 0 1-18.5 9.35z" horiz-adv-x="1200"/><glyph glyph-name="airplayvideo" unicode="&#xEA46;" d="M170.6 1134c-58.9 0-79.2-6.1-101.55-18.3A122.45 122.45 0 0 1 18.25 1065C6.1 1042.6 0 1022.35 0 961.45v-456.85c0-58.9 6.1-79.25 18.25-101.55 12.2-22.35 28.5-38.6 50.8-50.8 20.3-12.2 40.65-18.25 101.55-18.25h136l56.9 67H150.3c-16.25-2.05-34.5 0.05-50.8 8.2-10.15 4-18.3 14.15-24.4 24.3-6.1 16.25-10.15 32.5-8.1 50.8V979.7c-2 16.25 0 34.5 8.1 50.75 4.05 10.15 14.25 18.25 24.4 24.35 16.25 6.1 32.5 10.2 50.8 8.2h893.35c16.25 2 34.5-0.1 50.8-8.2 10.15-4.1 18.2-14.2 24.3-24.35 6.1-16.2 10.15-32.5 8.1-50.75v-497.5c2-16.2 0-34.5-8.1-50.75-4.05-10.15-14.15-18.25-24.3-24.3-16.25-6.1-32.5-10.15-50.8-8.15h-213.2l56.85-67.05 140.15 2c60.9 0 81.15 6.1 103.5 18.3a122.45 122.45 0 0 1 50.8 50.8c12.15 20.3 18.25 40.65 18.25 101.5V961.5c0 60.9-6.1 81.15-18.25 103.5a122.45 122.45 0 0 1-50.8 50.75c-22.35 12.2-42.6 18.3-103.5 18.3H170.6z m422.55-609.9a25.05 25.05 0 0 1-18.5-9.35l-355.3-408.1a23.25 23.25 0 0 1-6.15-16.3 23.5 23.5 0 0 1 24.4-24.35h714.65c6.1 0 12.25 2 16.3 6.05 10.15 8.15 10.2 24.45 2.05 34.6l-355.35 408.1-2.05 2a29.7 29.7 0 0 1-20 7.35z" horiz-adv-x="1200"/><glyph glyph-name="airtable" unicode="&#xEA47;" d="M599.6 1101.7c-21.7 0-43.5-4.3-64-12.85L88.95 904.15c-25.15-10.4-24.5-45.4 0.6-55.8l449.1-177.9a163.3 163.3 0 0 1 122.7 0l449.1 177.9c25.15 9.8 25.15 45.4 0.6 55.8l-447.85 184.7a162.75 162.75 0 0 1-63.6 12.85zM1170 797.2a29.45 29.45 0 0 1-11.1-2.25l-500.6-193.85a30.6 30.6 0 0 1-19-28.2v-444.8a30 30 0 0 1 41.05-27.6L1181 295a29.15 29.15 0 0 1 19 27.55V767.35a30 30 0 0 1-30 29.8zM33.8 795.25a32.2 32.2 0 0 1-24-9.5C4.3 780.2 0 773.5 0 765.5v-417.75c0-22.1 25.75-36.85 45.4-27l313.5 150.3 15.35 7.35 148.45 71.8c23.3 11 21.5 45.4-3.05 54.6L44.15 793.1a28.5 28.5 0 0 1-10.35 2.2z" horiz-adv-x="1200"/><glyph glyph-name="ajv" unicode="&#xEA48;" d="M435.25 964.1a49001 49001 0 0 0 60.55-159.5l148.1-394.3c9.9-26.3-2.7-58.5-29.15-68.3-15.55-5.8-32.75-3-46.3 5.5l-72.7-70.9c40.5-38.75 99.25-51.7 155.8-30.7 80.1 29.65 119.35 120.8 89.5 200.4L549.2 964.1z m207.65-0.65l228.5-586 96.2-0.4L1200 960.85l-120.2 0.55-159.65-441.6-157.05 443.05z m-415.45-0.65L0 378.95l117.7-0.5 54.6 145.5 205.6-0.95 54-146 117.75-0.6L328.6 962.3z m49.95-129.6L357.5 603l-165.8 0.8z" horiz-adv-x="1200"/><glyph glyph-name="alacritty" unicode="&#xEA49;" d="M503.25 1200l-428.5-1063.45h179.75l345.5 812.2 345.5-812.2h179.7l-428.5 1063.45z m96.75-496.75c-38.333-92.735-76.67-185.47-114.9-278.25 73.75-227 73.75-227 114.9-425 41.15 198 41.15 198 114.85 425-38.3185 92.735-76.575 185.495-114.85 278.25z" horiz-adv-x="1200"/><glyph glyph-name="albertheijn" unicode="&#xEA4A;" d="M782.6 1200c-17.7-0.1-35.7-4.5-52.35-13.8L223.75 903.8c-22.8-13-44.05-35.8-53.75-68.1l-135.9-472c-16.3-56.5 15.55-115.7 71.15-132.3l798.4-227.1c55.55-16.5 113.85 15.9 130.15 72.4l132.05 462.9c8.6 27.15 3.8 60.65-9.6 86.85L879.5 1141.9A109.5 109.5 0 0 1 782.6 1200zM648.5 881.35s-0.4-211.5 0-211.25c44.95 64.75 85.6 128.85 161.7 128.85 84.2 0.05 129.85-70.45 130.1-129.75l-0.35-379.8h-94.55l-0.45 359.5c0 49.4-39.65 49.3-40.2 49.3-32 0-90.8-80.25-156.25-169.3v-239.65l-95.65-0.1-0.1 110.95S489.5 289.15 394.85 289c-107.4 0-143.85 73.8-144.1 250.75-0.2 168.5 23.7 258.75 138.85 258.85 87.55 0.05 162.8-127.5 162.8-127.5V751.85z m-257.5-182.9c-44 0-47.85-46.5-47.7-158.5 0.15-112.1 6.2-155.75 47.5-155.75 56.2 0.05 144.75 143 144.75 143S447.75 698.5 391 698.5z" horiz-adv-x="1200"/><glyph glyph-name="alchemy" unicode="&#xEA4B;" d="M600.295 1111.825a21.915 21.915 0 0 1-10.745-2.735 21.07 21.07 0 0 1-7.81-7.615L468.065 908.3a40.955 40.955 0 0 1-5.665-20.8c0-7.3 1.94-14.48 5.665-20.8l247.56-420.615a42.22 42.22 0 0 1 15.625-15.235 42.92 42.92 0 0 1 21.195-5.565h227.445a21.79 21.79 0 0 1 10.645 2.83 20.925 20.925 0 0 1 7.715 7.62 20.53 20.53 0 0 1 2.93 10.35 20.8 20.8 0 0 1-2.835 10.45L618.555 1101.275a20.8 20.8 0 0 1-7.715 7.62 21.38 21.38 0 0 1-10.55 2.93zM400.975 774.71a21.385 21.385 0 0 1-10.55-2.83 21.175 21.175 0 0 1-7.81-7.62L2.92 119.525a20.415 20.415 0 0 1-0.1-20.9 20.94 20.94 0 0 1 7.815-7.62c3.25-1.825 6.9-2.85 10.645-2.83h227.545a42.93 42.93 0 0 1 21.19 5.565 41.945 41.945 0 0 1 15.525 15.235l247.66 420.615a40.97 40.97 0 0 1 5.665 20.8 41.32 41.32 0 0 1-5.665 20.9L419.43 764.26a21.175 21.175 0 0 1-7.81 7.62 21.75 21.75 0 0 1-10.65 2.83Zm150.585-441.22a43.225 43.225 0 0 1-21.29-5.565 41.925 41.925 0 0 1-15.525-15.235l-113.77-193.07a20.615 20.615 0 0 1-2.835-10.45 20.295 20.295 0 0 1 2.835-10.35 21.14 21.14 0 0 1 7.715-7.715 21.6 21.6 0 0 1 10.645-2.735h759.485a21.595 21.595 0 0 1 10.645 2.735 21.11 21.11 0 0 1 7.715 7.715 20.295 20.295 0 0 1 2.83 10.35 20.61 20.61 0 0 1-2.83 10.45L1083.5 312.69a41.92 41.92 0 0 1-15.53 15.235 42.865 42.865 0 0 1-21.19 5.565z" horiz-adv-x="1200"/><glyph glyph-name="aldinord" unicode="&#xEA4C;" d="M690.6 1097.15L304.3 513.5c-17.45-26.15-29.05-44.5-29.6-73.05-0.5-27.05 6.4-51.35 19.75-74.75h73a105.5 105.5 0 0 0-27.3 76.55c0.35 6.25 1.5 14 3.35 20.25h491.65a96.65 96.65 0 0 1-14.85 29.15H357.25a565 565 0 0 0 18.95 30.2l25.35 38h373.5l-20.4 30.7H422l335.1 506.6z m-175.1 0L154.6 551.85c-27.45-41.15-40.3-65.2-40.3-103.4 0-43.55 11.6-62.75 20.45-82.75h57.65a200.35 200.35 0 0 0-4.8 11.6 166.35 166.35 0 0 0-11.65 61.5c1 40.55 15.1 67.8 38.6 102.9l369.05 555.45z m317-731.45c16.9 17.6 29 46.35 27.35 76.6-1.4 25.85-17.15 51.3-36 79.55l-211.7 317.5 32.4 48.7 249.65-374.55c17.4-26.15 29-44.5 29.6-73.05a141.65 141.65 0 0 0-19.75-74.75h-71.5z m175.4 0c2.05 4.5 3.1 7.2 4.7 11.5 6.15 16.2 13.5 38.4 13 61.55-1 40.6-15.1 67.85-38.65 102.95l-287.25 429 33.25 49.8 312.5-468.65c27.4-41.2 40.25-65.15 40.25-103.4 0-43.55-11.6-62.75-20.45-82.75z m-876.5-22.85v-240h937.15v240z m179.4-28.55h83.6l93.65-182.9H405.2l-8.8 19.25H308.85L300 131.4H217.15z m188.05 0h83.5v-130.05h71.75v-52.85H498.85z m171.1 0h121.5c50.1 0 90.7-41 90.7-91.5a91.1 91.1 0 0 0-90.75-91.4h-121.5z m230.7 0h82.2v-182.9h-82.2z m-148.7-51.7v-79.5h17.6c20.5 0 37.15 17.8 37.15 39.75 0 22-16.6 39.75-37.15 39.75z m-399.8-23.25l-18.7-40.55h38.35z m42 309.45h388.35l30.7-46.1H363.8c4.4 7.25 30.35 46.1 30.35 46.1m201.75 548.35L224.4 538c-23.25-34.75-36.55-60.7-37.5-99.5-0.5-22.6 6.4-50.65 16.85-72.85h78.8a147.1 147.1 0 0 0-18.8 74.85c0.6 30.75 13.3 50.5 30.7 76.55l383.9 580z m321.55-731.45a147 147 0 0 1 18.8 74.85c-0.6 30.75-13.3 50.5-30.65 76.6l-253.95 381.25 41.35 62.35 282.6-422.7c23.25-34.75 36.6-60.7 37.5-99.5 0.55-22.6-6.4-50.65-16.9-72.85H917.5zM1171.45 1200H28.5v-1200h1143z m-45.75-1154.3H74.3V1154.3h1051.4z" horiz-adv-x="1200"/><glyph glyph-name="aldisud" unicode="&#xEA4D;" d="M908.2 654c-12.15 27.9-27.9 32.75-52.2 32.75h-218.4l-20.6-59.45a36.35 36.35 0 0 0-4.85-12.15h276.65c15.75 0 29.1-2.4 40-15.75h2.45c0-1.2-21.85 51-23.05 54.6z m-44.9 106.75c-12.15 25.5-26.7 29.15-51 29.15h-139.5l-24.25-71.6h197.75c18.2 0 31.55-2.45 41.25-15.75h2.45s-24.3 52.15-26.7 58.2z m-43.7 103.15c-13.35 26.7-26.7 29.1-50.95 29.1h-61.9l-24.25-71.5h120.15c17 0 31.5-2.45 41.25-15.8h2.4c0 1.25-24.25 51-26.7 58.25zM467.75 1024.05c-34 0-48.5-24.25-61.9-61.85L271.2 563h34c33.95 0 48.5 24.25 61.85 61.85l117.7 347c9.7 30.35 24.25 47.35 46.1 49.8V1024z m220.8 1.25c-33.95 0-48.5-24.3-61.85-61.9l-117.7-345.8c-9.7-30.35-23.05-47.35-44.9-49.75v-2.45h60.65c34 0 48.55 24.3 61.9 61.9l117.7 345.8c9.7 30.35 24.25 47.3 46.1 49.75v2.45z m-110.4 0c-34 0-48.5-24.3-61.85-61.9l-116.5-347c-9.7-30.35-23.05-47.35-44.9-49.75v-2.45h60.65c34 0 48.55 24.25 61.9 61.9l117.7 345.8c9.7 30.3 24.25 47.3 46.1 49.75V1024c-10.9 1.25-60.65 1.25-63.1 1.25z m18.2-842.1c-27.9 0-32.75 12.15-32.75 41.25v46.15h23.05v-52.2c0-13.35 1.2-19.4 10.9-19.4 8.5 0 10.95 4.85 10.95 19.4v52.2h21.85v-46.15c0-31.5-8.5-41.25-34-41.25z m15.8 95.85a10.85 10.85 0 0 0-10.95 10.95c0 6.05 4.85 12.1 10.95 12.1 6.05 0 10.9-6 10.9-12.1a10.85 10.85 0 0 0-10.9-10.95z m-31.55 0a10.85 10.85 0 0 0-10.95 10.95c0 6.05 4.85 12.1 10.95 12.1 6.05 0 10.9-6 10.9-12.1a10.85 10.85 0 0 0-10.9-10.95z m65.5-93.4v84.95h24.25c30.35 0 43.7-6.1 43.7-42.5s-13.35-42.5-43.7-42.5z m27.9 14.55c12.15 0 17 7.3 17 27.9 0 19.4-4.85 27.9-17 27.9h-4.85v-55.8z m-157.7-17c-13.35 0-23.05 2.45-27.95 3.65l3.65 15.8c8.5-2.45 14.55-3.65 19.45-3.65 6 0 13.3 1.2 13.3 8.5 0 4.85-6 8.5-12.1 12.1h-1.2c-9.75 6.1-20.65 12.15-20.65 25.5 0 15.75 10.9 24.25 31.5 24.25 11 0 17-1.2 25.5-3.65l-3.6-14.5a46.2 46.2 0 0 1-18.2 3.6c-7.3 0-12.15-2.4-12.15-8.5 0-4.85 6.05-8.5 13.35-12.1h1.2c9.7-6.1 21.85-12.15 21.85-25.5 0-15.8-10.9-25.5-34-25.5zM418 321.55c-2.45 9.7-6.05 26.7-8.5 34H342.75c-2.4-7.3-6-24.3-8.5-34H274.85c25.5 80.05 36.4 112.85 65.5 184.4h72.85c27.9-70.35 40-104.35 65.5-184.4z m-66.75 72.8h49.75c-7.25 24.25-20.6 65.5-24.25 77.65-4.85-10.95-18.2-52.2-25.5-77.65z m191.7-72.8c-31.5 0-48.5 18.2-48.5 49.75v134.65h55.8v-123.75c0-15.75 4.85-19.4 20.65-19.4h54.6l8.5-41.25z m316.7 184.4h55.8v-184.4h-55.8z m-203.85-184.4v184.4h76.5c57 0 95.8-23 95.8-91 0-65.5-31.5-93.4-93.4-93.4z m55.85 40h15.75c34 0 47.3 15.8 47.3 53.4 0 36.4-17 51-49.75 51h-13.3z m276.6-236.6c0-8.5-7.25-14.5-14.5-14.5H227.5a14.75 14.75 0 0 0-14.55 14.5V1076.25c0 8.5 7.25 14.55 14.55 14.55h746.2c8.5 0 14.55-7.3 14.55-14.55zM203.25 1118.7a19.15 19.15 0 0 1-19.45-19.4v-997.4c0-10.9 8.5-19.4 19.45-19.4h793.5c10.95 0 19.45 8.5 19.45 19.4V1099.3a19.15 19.15 0 0 1-19.45 19.4zM140.15 1200a40.4 40.4 0 0 1-40.05-40v-1120c0-21.8 18.2-40 40-40h919.75a40.4 40.4 0 0 1 40.05 40V1160c0 21.8-18.2 40-40 40z m35.2-47.3h850.5a27 27 0 0 0 26.75-26.7l-1.25-1052a26.95 26.95 0 0 0-26.7-26.7H175.35a26.95 26.95 0 0 0-26.7 26.7V1126a27 27 0 0 0 26.7 26.7z" horiz-adv-x="1200"/><glyph glyph-name="alfaromeo" unicode="&#xEA4E;" d="M676.95 929.74a10.79 10.79 0 1 1 0 21.59 10.79 10.79 0 1 1 0-21.59z m-465.275-78.8l-32.665-64.935-66.825 35-13.8-27.57a21.585 21.585 0 0 0 4.585 0.485c2.78 0 5.535-0.525 7.68-1.505l74.615-39.07 44.345 88.2z m786.105-21.62l15.545 8.445 25.45-48.96 17.49 9.47-25.475 48.955 14.845 8.04 36.68-70.465 17.47 9.48-50.69 97.43c-1.855-4.315-5.42-7.96-8.255-9.44l-72.55-39.35 50.355-96.79 17.485 9.485z m-364.32 100.42a10.79 10.79 0 1 1 0 21.59 10.79 10.79 0 1 1 0-21.59z m252.87-75.935l0.135-0.155c59.91-67.49 96.31-156.325 96.31-253.66 0-155.175-92.48-288.735-225.325-348.64-0.45-0.22-0.89-0.465-1.355-0.67l0.105 0.09 1.25 0.58c21.725 10.325 36.76 32.44 36.76 58.095 0 35.535-28.8 64.325-64.335 64.325l-67.725 0.06a8.28 8.28 0 1 0 0 16.56h114.375c53.835 0 97.48 43.645 97.48 97.485 0 53.835-43.645 97.485-97.48 97.485l-14.53-0.015h-95.92a8.28 8.28 0 1 0 0 16.555l84.34 0.095c88.99 0 161.135 72.14 161.135 161.13a160.35 160.35 0 0 1-26.535 88.6l-0.425 0.6a1.15 1.15 0 0 0-0.23 0.675c0 0.65 0.53 1.175 1.18 1.175 0.4 0 0.57-0.06 0.79-0.37z m-162.9-615.89a381.695 381.695 0 0 0-122.95-20.205c-57.4 0-111.84 12.67-160.7 35.35v301.27h108.26a121.495 121.495 0 0 0-6.135 38.25c0 20.145 4.93 39.15 13.595 55.905H439.785v298.45c48.855 22.675 103.29 35.35 160.7 35.35 66.735 0 129.49-17.11 184.09-47.175h0.035c7.81-4.94 13-13.65 13-23.585a27.86 27.86 0 0 0-27.865-27.86l-0.61 0.02h-8.96l-38-0.045c-13.385 0-20.725-3.95-25.33-7.95-13.275-11.51-8.725-25.145-35.96-25.145h-75.11c10.16-23.425 33.48-40.335 39.28-44.275h92.25a8.92 8.92 0 0 0 8.275-5.6 7.805 7.805 0 0 0 0.51-4.855 8.93 8.93 0 0 0-8.785-7.415H623.4c-7.215-3.77-29.135-17.445-39.25-48.305h169.5a20.03 20.03 0 1 0 0-40.06l-85.855 0.01c-59.18 0-107.155-47.975-107.155-107.15 0-59.185 47.975-107.16 107.15-107.16h107.07c4.575 0 8.28-3.825 8.28-8.4a8.19 8.19 0 0 0-8.28-8.17h-109.65c-43.355 0-78.505-35.14-78.505-78.485 0-43.355 35.15-78.5 78.5-78.5l41.42-0.14c20.925 0 38.16-17.56 38.16-38.335 0-16.98-10.245-28.955-21.35-35.79z m-377.795 410.57H221.25c11.84 93.575 57.53 176.6 124.39 236.435z m0-333.415c-67.525 60.45-113.44 144.535-124.715 239.26h124.715z m254.85 687.895c-222.55 0-402.97-180.415-402.97-402.975 0-222.54 180.42-402.97 402.965-402.97 222.56 0 402.975 180.43 402.975 402.97 0 222.56-180.415 402.975-402.975 402.975z m-15.05-100.45h95.115a7.215 7.215 0 0 1 7.2 7.2 7.225 7.225 0 0 1-7.2 7.21h-95.115a7.225 7.225 0 0 1-7.2-7.21c0-3.965 3.245-7.2 7.2-7.2z m3.6 27.225a10.795 10.795 0 1 1 0 21.59 10.79 10.79 0 1 1 0-21.59z m14.94-132.61l1.35 1.285v0.01l-1.35 1.295c-21.05 15.285-30.375 34.22-36.005 48.875-3.885 10.1-8.26 18.395-14.625 24.465-6.61 6.29-11.425 9.635-20.96 9.635a48.565 48.565 0 0 1-11.51-1.46l-2.28-0.55 1.415-2.625c2.11-3.915 6.025-11.19 12.88-13.28a5.965 5.965 0 0 1 1.78-0.23 19.3 19.3 0 0 1 1.66 0.095c0.45 0.04 0.89 0.085 1.305 0.085 0.465 0 0.615-0.065 0.62-0.065 7.4-4.28 11.275-35.83 11.275-51.55 0-2.685-1.11-3.9-3.59-3.9-2.465 0-5.68 1.35-7.65 3.205-4.335 4.675-10.535 7.3-17.35 7.3-11.115 0-22.9-7.495-23.365-20.025v-2.545c0.47-12.53 12.25-20.025 23.37-20.025 6.81 0 13.01 2.625 17.345 7.3 1.97 1.85 5.185 3.195 7.65 3.195 2.48 0 3.59-1.2 3.59-3.89 0-15.72-3.88-47.27-11.275-51.55 0 0-0.15-0.06-0.62-0.06a14.225 14.225 0 0 0-1.3 0.08 19.3 19.3 0 0 1-1.665 0.095 5.97 5.97 0 0 1-1.78-0.23c-6.855-2.09-10.77-9.365-12.88-13.28l-1.415-2.625 2.28-0.56a49.18 49.18 0 0 1 11.51-1.45c9.535 0 14.35 3.335 20.96 9.635 6.365 6.07 10.74 14.365 14.625 24.465 5.63 14.655 14.95 33.59 36.005 48.88z m-472.06-106.115l-6.11-40.175-34.995 26.42z m-63.69-31.86a12.32 12.32 0 0 0 4.85 0.965 12.61 12.61 0 0 0 6.165-1.59l0.14-0.08 76.33-58.675 3.875 25.49-15.515 11.68 9.305 61.21 18.19 6.08 3.865 25.445-101.545-34.15zM600 24C281.89 24 24 281.89 24 600S281.895 1175.985 600 1175.985C918.11 1175.985 1175.99 918.11 1175.99 600c0-318.11-257.875-576-575.99-576zM600 1199.985C268.635 1199.985 0 931.36 0 600c0-331.36 268.635-599.985 600-599.985 331.37 0 600 268.625 600 599.985C1200 931.36 931.37 1199.985 600 1199.985z m133.375-132.15c3.965 11.5 13.735 17.84 27.525 17.84 5.765 0 11.89-1.15 18.2-3.42 21.99-7.905 32.49-23.76 26.745-40.39-3.98-11.565-13.775-17.945-27.565-17.945-5.8 0-11.965 1.16-18.325 3.445-21.92 7.875-32.355 23.76-26.58 40.475z m19.62-60.83c9.75-3.505 19.45-5.285 28.82-5.285h0.005c23.765 0 41.975 11.66 48.715 31.2 4.755 13.8 2.6 28.5-6.07 41.4-8.275 12.32-21.915 22.375-38.41 28.3-9.51 3.415-19.08 5.15-28.41 5.15-23.965 0-42.265-11.58-48.975-30.995-9.585-27.76 9.05-57.11 44.325-69.77z m154.72-7.97l-9.185-72.77 1.15-1.075 69.69 16.33-38.3-51.85 18.785-17.52 58.105 76.635-21.585 20.115-60.79-13.615 7.425 63.355-22.6 21.075h-0.02l-2.77 2.56c-0.225-4.575-2.135-9.2-4.725-11.7l-60.22-58.495 18.885-17.61z m181.215-374.075a26.98 26.98 0 0 0-4.595-0.4c-15.055 0-26.585 13.135-30.1 34.26-3.88 23.36 4.685 40.37 21.85 43.355a28.28 28.28 0 0 0 4.52 0.38c14.795 0 26.585-13.39 30.03-34.135 3.9-23.43-4.615-40.495-21.705-43.46z m42.465 47.09c-5.62 33.69-27.12 57.215-52.295 57.215a44.985 44.985 0 0 1-7.405-0.64c-28.4-4.945-44.47-35.825-38.215-73.435 5.715-34.29 26.73-57.33 52.285-57.33a44.15 44.15 0 0 1 7.56 0.66c28.315 4.915 44.335 35.835 38.07 73.53zM621.615 1113.645h0.005c8.065 0 13.535-5.78 13.61-14.4 0.07-8.7-5.2-14.16-13.755-14.23l-49.46-0.435-0.25 28.63z m-74.75-76.16l25.545 0.225-0.225 26.6 42.86 0.385 18.73-26.46 28.48 0.25-21.515 28.485 2.65 1.27c10.935 5.24 17.135 16.145 17.01 29.92-0.185 21.725-14.5 35.77-36.44 35.77l-77.935-0.67v-0.03l-4.5-0.025c2.665-3.225 4.36-7.49 4.615-11.065z m-169.22-16.19l-35.23-20.235-1.135 43.83z m-58.235 21.075l0.03-0.17 1.67-96.35 22.36 12.855-0.54 19.41 53.675 30.865 16.085-10.45 22.315 12.825-89.975 58.17-32-18.27a12.705 12.705 0 0 0 6.38-8.885zM187.4 921.27L247.86 863.25l17.535 19.025-22.275 21.385 37.2 40.37-14.435 13.86-37.215-40.37-17.2 16.505 53.565 58.135-14.435 13.85-74.295-80.655c3.91-0.26 8.215-1.8 11-4.01l0.09-0.07Z" horiz-adv-x="1200"/><glyph glyph-name="alfred" unicode="&#xEA4F;" d="M0 404.9c0 57.1 56.65 109.2 150 148.85v91.35c0 207.1 201.45 375 450 375s450-167.9 450-375v-91.35c93.35-39.65 150-91.75 150-148.85 0-124.25-268.65-225-600-225s-600 100.75-600 225z" horiz-adv-x="1200"/><glyph glyph-name="algolia" unicode="&#xEA50;" d="M158 1200A157.8 157.8 0 0 1 0 1042.4v-884.5A158.05 158.05 0 0 1 158 0h884c87.35 0 158 71 158 158V1042C1200 1129.35 1129 1200 1042 1200H158z m393.5-174.7h121.45A52 52 0 0 0 725 973.25v-41.1a7 7 0 0 0-8.7-7 383.95 382.35 0 0 1-102.15 13.8 378.2 376.65 0 0 1-105.65-14.85c-4.75-1.05-9.1 2.25-9.1 7v42.15a52.2 52 0 0 0 52.05 52z m-217.5-111a52 51.75 0 0 0 37.5-15.3l20.7-20.8c2.9-3.25 2.55-8.35-1.1-10.5a377.2 375.65 0 0 1-47.05-40.05 400 398.35 0 0 1-39.65-46.6c-2.9-3.25-7.65-4-10.95-0.8l-20.4 20.45a52.15 52 0 0 0 0 73.6l24.8 24.7a52 51.75 0 0 0 36.15 15.25z m279.85-17.5a338.7 338.7 0 0 0 339.35-338.9 339.2 339.2 0 0 0-339.35-339.15c-187.4 0-339.45 151.4-339.45 338.85a339.3 339.3 0 0 0 339.5 339.2z m0-100.4a239.15 239.15 0 0 1-239.15-238.8 239.15 239.15 0 0 1 239.15-238.75 238.85 238.85 0 0 1 239.2 238.75 239.1 239.1 0 0 1-239.2 238.8z m7.25-41.9a196.75 195.95 0 0 0 164.05-99.4c1.8-3.65 0.75-8-2.85-9.8l-158.3-81.9c-4.65-2.6-10.25 1.15-10.25 6.25V747.5h0.1c0 4 3.6 6.95 7.25 6.95Z" horiz-adv-x="1200"/><glyph glyph-name="algorand" unicode="&#xEA51;" d="M693.7 1200h183.65l80.5-298.15h189.45l-129.4-225 181.2-676.65h-187.85l-122 453.85-262.35-453.95H417.25l405.35 702.55-65.2 243.9L210.75 0H0.9Z" horiz-adv-x="1200"/><glyph glyph-name="alibabacloud" unicode="&#xEA52;" d="M199.8 974.15h264.55L400.5 883.8 207.65 824.7a83.4 83.4 0 0 1-58.25-80.05v-289.3a83.4 83.4 0 0 1 58.25-80l192.85-59.15 63.85-90.35H199.8A199.8 199.8 0 0 0 0 425.65V774.35a199.8 199.8 0 0 0 199.8 199.8m800.4 0h-264.55l63.85-90.35 192.85-59.1c35.75-11.35 58.5-44.45 58.25-80.05v-289.3a83.4 83.4 0 0 0-58.25-80l-192.85-59.15-63.85-90.35h264.55A199.8 199.8 0 0 1 1200 425.65V774.35a199.8 199.8 0 0 1-199.8 199.8m-200.35-417.25H400.1v90.2h399.75Z" horiz-adv-x="1200"/><glyph glyph-name="alibabadotcom" unicode="&#xEA53;" d="M719.55 389c-48.15-2.2-43.25 22.95-15.1 61.7 66 88.4 191 211.8 195.3 299.1 7.55 114.15-107.15 151.3-225.05 150.2-82.25-1.1-167.2-24.6-225.05-45.3C250 784.25 124.45 671.2 45.45 546.2-38.4 422.3-10.8 303.85 166.1 300c135.8 5.45 224 43.1 316 90.1 0.5 0-254.3-72.65-347.9-19.15l-0.4 0.1c-9.65 5.5-20.2 13.2-22.85 34.15-0.6 44.25 73 90.1 114.15 104.85v76.65a268.7 268.7 0 0 1 97.75-18.3 268.9 268.9 0 0 1 173.6 63.25c1.85-6.5 2.8-13.9 2.2-22.35h18.55c2.4 19.7-8.6 35.3-8.6 35.3-16.65 26.45-45.75 26-45.75 26s15.75-6.85 26.45-23.3a247.65 247.65 0 0 0-233.25-46.6l60.5 60-16.8 43.7c121.75 42.6 224 75.35 390.6 104.25l-37.3 31.2 19.45 12c100.5-28.4 166.25-49.25 162.65-102.55a133.6 133.6 0 0 0-10.1-30.55c-29.2-57.9-116.3-154.5-151.45-194.9-23.25-26.75-46-53-62.25-78.1-16.75-25.15-27-48.55-27.55-71 2.15-175.2 516.7 82 616.2 150.15-147.15-63.3-305.65-124.45-480.45-135.9Z" horiz-adv-x="1200"/></font>
</defs>
</svg>
