<svg xmlns="http://www.w3.org/2000/svg"><metadata>Generated by IcoMoon</metadata><defs><font id="themify" horiz-adv-x="512"><font-face ascent="480" descent="-32" units-per-em="512"/><glyph horiz-adv-x="256"/><glyph d="M512 329.412h-99.178l70.114-70.114-21.293-21.293-70.114 70.114v-99.178h-30.118v98.966l-320.632-321.204-21.293 21.293 320.844 321.416h-99.388v30.118h99.177l-70.114 70.114 21.293 21.293 70.114-70.114v99.178h30.118v-99.298l68.879 68.999 21.293-21.293-68.758-68.879h99.057v-30.118z" unicode=""/><glyph d="M108.032 301.312c-28.793 0-46.682-15.059-46.682-39.334v-65.084c0-12.499 4.849-24.214 13.643-33.069 8.794-8.825 20.54-13.704 33.039-13.704h52.495l171.249-171.309v494.803l-169.563-172.303h-54.181zM301.659 400.068v-348.522l-128.662 128.692h-64.994c-9.126 0-16.535 7.469-16.535 16.655v65.084c0 2.74 0 9.216 16.564 9.216h66.771l126.856 128.873zM361.563 149.098v30.118c16.745 0 30.358 13.613 30.358 30.358s-13.613 30.358-30.358 30.358v30.118c33.34 0 60.476-27.136 60.476-60.476s-27.136-60.476-60.476-60.476zM482.756 209.332c0-66.44-54.031-120.471-120.471-120.471v30.118c49.815 0 90.353 40.538 90.353 90.353s-40.538 90.353-90.353 90.353v30.118c66.409 0 120.471-54.061 120.471-120.471z" unicode=""/><glyph d="M512-16.58c-1.897 80.926-83.667 150.558-196.397 168.93v41.382c14.818 14.245 25.359 36.352 32.256 55.206 9.999 5 18.793 16.143 23.913 31.112 7.168 20.721 4.397 39.846-6.204 49.061 0.844 7.168 1.385 14.487 0.452 21.775-2.38 19.968 1.957 31.262 5.843 41.201 3.192 8.343 6.897 17.8 3.192 28.461-13.312 38.34-52.013 59.452-108.966 59.452l-7.951-0.15c-39.544-1.416-51.411-18.071-59.362-33.581-0.994-1.868-2.319-4.397-2.319-4.548-51.561-4.608-51.109-47.255-50.718-81.529l0.090-11.113c0-6.174 0.271-12.619 0.783-19.245-12.8-9.036-15.179-30.268-5.391-52.315 5.572-12.499 13.613-21.956 22.558-26.865 7.319-20.299 18.823-44.273 35.508-59.181v-38.641c-114.387-17.74-197.391-87.552-199.288-169.412l-0.361-15.42h512.692l-0.332 15.42zM31.744-1.882c11.806 63.067 86.106 115.079 184.38 126.615l13.282 1.566v80.293l-6.506 4.517c-11.836 8.192-23.823 28.522-32.828 55.748l-2.5 8.463-8.855 1.536c-1.596 0.572-6.264 4.608-9.939 12.89-2.259 5.060-3.132 9.397-3.373 12.499l15.36-4.307-2.892 22.558c-1.265 9.939-1.928 19.606-1.928 28.612l-0.090 11.445c-0.452 40.388 1.536 49.212 23.281 51.17 16.414 1.446 22.648 13.523 26.383 20.751 4.518 8.794 8.433 16.354 33.732 17.287l6.837 0.12c24.967 0 68.638-5.090 80.384-38.611 0-1.295-1.566-5.331-2.711-8.282-4.367-11.264-10.963-28.281-7.65-55.808 0.723-5.662-0.211-12.77-1.204-20.329l-2.68-24.245 13.282 1.446c0.241-3.132-0.12-8.101-2.259-14.216-2.921-8.704-7.288-13.191-7.138-13.673h-10.842l-3.433-10.3c-8.524-25.691-19.577-45.086-30.389-53.248l-5.964-4.517v-82.101l13.192-1.656c96.708-12.077 169.893-63.94 181.609-126.253h-448.542z" unicode=""/><glyph d="M286.118 149.549c0-11.023-6.235-20.239-15.059-25.48v-64.874h-30.118v64.844c-8.855 5.24-15.059 14.457-15.059 25.51 0 16.625 13.463 30.118 30.118 30.118 16.595 0 30.117-13.462 30.117-30.118zM451.584 225.204v-213.233c0-24.908-20.269-45.177-45.176-45.177h-300.815c-24.907 0-45.176 20.269-45.176 45.176v213.233c0 24.907 20.269 45.177 45.176 45.177h270.878v59.874c0 66.44-54.031 120.471-120.471 120.471s-120.471-54.031-120.471-120.471h-30.118c0 83.034 67.554 150.588 150.588 150.588s150.588-67.554 150.588-150.588v-59.874c24.817-0.12 44.996-20.33 44.996-45.177zM421.466 225.204c0 8.313-6.776 15.059-15.059 15.059h-300.815c-8.282 0-15.059-6.746-15.059-15.059v-213.233c0-8.313 6.776-15.059 15.059-15.059h300.815c8.283 0 15.059 6.747 15.059 15.059v213.233z" unicode=""/><glyph d="M64.271 325.226l42.225 77.914c32.708 49.634 98.244 63.097 146.703 30.991l-16.595-25.088c-34.605 22.86-81.408 13.252-104.328-21.353l-42.225-77.915c-23.522-35.78-13.975-82.582 20.691-105.442 34.424-22.649 72.584-16.474 99.78 16.204l23.131-19.305c-22.347-26.865-51.019-40.719-80.655-40.719-19.727 0-39.846 6.144-58.85 18.673-48.489 32.045-61.922 97.551-29.876 146.041zM121.706 238.035l-3.915-3.885 21.233-21.354 3.946 3.916c29.364 29.364 77.132 29.364 106.466 0s29.365-77.132 0-106.466l-91.046-91.076c-29.364-29.365-77.132-29.365-106.466 0s-29.364 77.132 0 106.466l31.865 31.894-21.293 21.293-31.864-31.925c-41.081-41.080-41.081-107.972 0-149.052 20.57-20.57 47.525-30.811 74.541-30.811s53.971 10.27 74.541 30.81l91.046 91.076c41.081 41.081 41.081 107.972 0 149.052-41.171 41.171-108.032 41.081-149.052 0.060zM330.18 269.177h122.7v30.117h-122.7v-30.117zM316.084 228.608l58.76-33.942 15.059 26.052-58.76 33.942-15.059-26.052zM323.764 445.184l-47.586-82.432 26.052-15.059 47.586 82.402-26.052 15.089zM477.877 397.93l-15.059 26.052-150.347-86.799 15.059-26.052 150.348 86.799z" unicode=""/><glyph d="M329.337 419.283c-6.565 26.172-30.087 45.659-58.278 45.659-28.070 0-51.501-19.365-58.157-45.659h-107.49v-30.118h331.294v30.118h-107.37zM271.059 434.824c11.505 0 21.233-6.656 26.353-15.541h-52.194c5.18 9.125 14.607 15.541 25.841 15.541zM391.529 359.529h30.118v-316.717c0-24.908-20.269-45.176-45.176-45.176h-210.823c-24.907 0-45.177 20.269-45.177 45.176v316.717h30.118v-316.717c0-8.283 6.746-15.059 15.059-15.059h210.823c8.313 0 15.059 6.776 15.059 15.059v316.717zM240.941 329.412v-240.941h-30.118v240.941h30.118zM331.294 329.412v-240.941h-30.118v240.941h30.118z" unicode=""/><glyph d="M346.353 175.33c91.347 0 165.647 68.337 165.647 152.335s-74.3 152.335-165.647 152.335c-57.585 0-111.225-28.25-141.071-73.216-21.233 12.017-45.056 18.312-69.752 18.312-74.722 0-135.53-56.019-135.53-124.898 0-68.849 60.807-124.868 135.53-124.868 5.602 0 11.294 0.392 17.257 1.115 19.637-17.709 45.839-27.738 73.095-27.738 30.178 0 58.097 11.656 78.065 32.226 14.697-3.764 28.642-5.602 42.406-5.602zM293.497 215.416l-6.385-8.072c-14.185-17.86-37.075-28.522-61.229-28.522-21.805 0-42.587 8.734-57.073 24.004l-5.542 5.813-7.951-1.385c-6.445-1.115-12.981-1.807-19.787-1.807-58.127 0-105.412 42.496-105.412 94.72 0 52.254 47.285 94.78 105.412 94.78 23.853 0 46.652-7.409 65.928-21.474l14.215-10.331 8.042 15.661c22.227 43.159 70.355 71.077 122.639 71.077 74.722 0 135.529-54.814 135.529-122.247 0-67.373-60.808-122.218-135.529-122.218-13.644 0-27.738 2.259-43.038 6.957l-9.818 3.042zM346.353 163.764c-33.22 0-60.236-27.015-60.236-60.236s27.015-60.236 60.236-60.236 60.236 27.015 60.236 60.236-27.015 60.236-60.236 60.236zM346.353 73.412c-16.595 0-30.118 13.493-30.118 30.118s13.523 30.118 30.118 30.118 30.118-13.493 30.118-30.118-13.523-30.118-30.118-30.118zM459.294 58.353c-20.751 0-37.647-16.896-37.647-37.647s16.896-37.647 37.647-37.647 37.647 16.896 37.647 37.647-16.896 37.647-37.647 37.647zM451.764 20.706c0 4.156 3.373 7.529 7.529 7.529s7.529-3.373 7.529-7.529c0-8.283-15.059-8.283-15.059 0z" unicode=""/><glyph d="M512.602 239.059h-61.591c-7.379 96.196-84.51 173.026-180.827 180.013v62.103h-30.118v-62.193c-95.533-7.77-171.731-84.299-179.079-179.923h-61.59v-30.117h61.59c7.349-95.624 83.546-172.153 179.049-179.923v-61.019h30.117v60.928c96.316 6.957 173.447 83.788 180.827 180.013h61.59v30.118zM270.185 59.046v59.543h-30.118v-59.452c-78.939 7.589-141.794 70.776-148.962 149.805h58.88v30.118h-58.88c7.168 79.029 70.024 142.215 148.962 149.805v-58.278h30.118v58.368c79.721-6.837 143.481-70.264 150.709-149.896h-58.88v-30.118h58.88c-7.228-79.631-70.988-143.059-150.708-149.895z" unicode=""/><glyph d="M269.644 449.642l-119.476-86.799v-365.628l120.049 84.149 121.706-83.877v365.478l-122.278 86.678zM361.834 54.829l-91.708 63.247-89.811-62.976v292.412l89.6 65.084 91.949-65.204v-292.563zM218.474 299.264c0-29.063 23.642-52.706 52.706-52.706s52.706 23.642 52.706 52.706-23.642 52.706-52.706 52.706-52.706-23.642-52.706-52.706zM271.18 321.852c12.438 0 22.588-10.149 22.588-22.588s-10.149-22.588-22.588-22.588-22.588 10.149-22.588 22.588 10.15 22.588 22.588 22.588z" unicode=""/><glyph d="M278.588 43.294c0-12.499-10.089-22.588-22.588-22.588s-22.588 10.089-22.588 22.588 10.089 22.588 22.588 22.588 22.588-10.089 22.588-22.588zM481.882 434.824v-421.647c0-24.908-18.824-45.176-41.924-45.176h-367.917c-23.1 0-41.924 20.269-41.924 45.176v421.647c0 24.907 18.824 45.176 41.924 45.176h367.947c23.070 0 41.894-20.269 41.894-45.176zM451.764 434.824c0 8.162-5.391 15.059-11.806 15.059h-367.917c-6.415 0-11.806-6.897-11.806-15.059v-421.647c0-8.162 5.391-15.059 11.806-15.059h367.947c6.385 0 11.776 6.897 11.776 15.059v421.647zM90.353 419.764h331.294v-331.294h-331.294v331.294zM120.471 118.588h271.059v271.059h-271.059v-271.059z" unicode=""/><glyph d="M501.368 268.664h-187.483l-57.886 178.297-57.916-178.297h-187.452l151.643-110.17-57.886-178.297 151.612 110.201 151.643-110.201-57.886 178.297 151.612 110.171zM350.358 59.046l-94.358 68.608-94.358-68.578 36.051 110.983-94.359 68.488h116.645l36.020 110.954 36.020-110.954h116.645l-94.358-68.517 36.051-110.983z" unicode=""/><glyph d="M195.764 389.647c-42.948 0-82.582-23.431-103.996-60.236h-31.533v-316.236c0-24.907 20.269-45.176 45.177-45.176h180.706c24.907 0 45.176 20.269 45.176 45.176v316.236h-31.533c-21.413 36.774-61.108 60.236-103.996 60.236zM195.764 359.529c25.871 0 50.356-11.324 67.283-30.117h-134.536c16.896 18.793 41.351 30.117 67.252 30.117zM301.176 13.176c0-8.283-6.747-15.059-15.059-15.059h-180.706c-8.313 0-15.059 6.776-15.059 15.059v286.118h210.823v-286.118zM240.941 480h-90.353v-90.353h90.353v90.353zM210.823 419.764h-30.118v30.118h30.118v-30.118zM359.755 434.492l94.449-15.601-4.909-29.696-180.706 29.817 2.56 15.481-2.56 15.48 180.706 29.817 4.909-29.696-94.449-15.601z" unicode=""/><glyph d="M346.353 359.529c0 49.815-40.538 90.353-90.353 90.353s-90.353-40.538-90.353-90.353c0-44.664 32.648-81.619 75.294-88.817v-242.477h-60.236v-30.118h150.588v30.118h-60.236v242.477c42.647 7.198 75.294 44.153 75.294 88.817zM195.764 359.529c0 33.22 27.016 60.236 60.236 60.236s60.236-27.015 60.236-60.236-27.015-60.236-60.236-60.236-60.236 27.015-60.236 60.236zM135.65 413.982c-11.385-13.854-17.378-30.238-17.378-47.405s5.993-33.551 17.378-47.405l-23.311-19.155c-15.812 19.305-24.184 42.315-24.184 66.53s8.373 47.255 24.184 66.53l23.311-19.094zM60.236 366.547c0-32.497 11.656-63.127 33.702-88.486l-22.709-19.757c-26.534 30.479-41.111 68.97-41.111 108.243s14.577 77.764 41.111 108.273l22.709-19.757c-22.046-25.389-33.702-56.019-33.702-88.516zM423.846 366.547c0-24.245-8.373-47.225-24.214-66.53l-23.281 19.125c11.385 13.854 17.378 30.238 17.378 47.405s-5.993 33.551-17.378 47.405l23.281 19.125c15.842-19.276 24.214-42.285 24.214-66.53zM481.882 366.547c0-39.304-14.577-77.764-41.111-108.273l-22.709 19.757c22.046 25.42 33.702 56.019 33.702 88.516s-11.656 63.126-33.702 88.486l22.709 19.757c26.534-30.479 41.111-68.94 41.111-108.243z" unicode=""/><glyph d="M82.823 103.529c-29.064 0-52.706-23.642-52.706-52.706s23.642-52.706 52.706-52.706 52.706 23.642 52.706 52.706-23.642 52.706-52.706 52.706zM82.823 28.236c-12.469 0-22.588 10.149-22.588 22.588s10.119 22.588 22.588 22.588 22.588-10.149 22.588-22.588-10.12-22.588-22.588-22.588zM338.824 103.529c-29.063 0-52.706-23.642-52.706-52.706s23.642-52.706 52.706-52.706 52.706 23.642 52.706 52.706-23.642 52.706-52.706 52.706zM338.824 28.236c-12.469 0-22.588 10.149-22.588 22.588s10.12 22.588 22.588 22.588 22.588-10.149 22.588-22.588-10.12-22.588-22.588-22.588zM402.703 419.764l-9.096-60.236h-395.836l33.672-242.025h358.791l31.262 224.768 7.108 47.375h83.396v30.117h-109.297zM389.3 329.412l-4.187-30.118h-348.582l-4.187 30.118h356.954zM57.645 147.622l-16.896 121.555h340.179l-16.896-121.555h-306.387z" unicode=""/><glyph d="M82.823 103.529c-29.064 0-52.706-23.642-52.706-52.706s23.642-52.706 52.706-52.706 52.706 23.642 52.706 52.706-23.642 52.706-52.706 52.706zM82.823 28.236c-12.439 0-22.588 10.149-22.588 22.588s10.149 22.588 22.588 22.588 22.588-10.149 22.588-22.588-10.15-22.588-22.588-22.588zM338.824 103.529c-29.063 0-52.706-23.642-52.706-52.706s23.642-52.706 52.706-52.706 52.706 23.642 52.706 52.706-23.642 52.706-52.706 52.706zM338.824 28.236c-12.438 0-22.588 10.149-22.588 22.588s10.149 22.588 22.588 22.588 22.588-10.149 22.588-22.588-10.149-22.588-22.588-22.588zM402.673 419.764l-9.065-60.236h-395.836l33.642-242.025h358.822l31.413 225.882 6.957 46.261h83.396v30.117h-109.327zM364.002 147.622h-306.356l-25.299 181.79h356.954l-25.299-181.79zM331.294 178.824h-240.941v119.537h30.118v-89.419h180.706v89.45h30.118v-119.567zM120.471 390.581h-30.117v59.301h240.941v-57.404h-30.118v27.286h-180.706v-29.184z" unicode=""/><glyph d="M256 300.137c-41.502 0-75.294-33.792-75.294-75.294s33.792-75.294 75.294-75.294 75.294 33.792 75.294 75.294-33.792 75.294-75.294 75.294zM256 179.667c-24.907 0-45.177 20.269-45.177 45.177s20.269 45.177 45.177 45.177 45.176-20.269 45.176-45.177-20.269-45.177-45.177-45.177zM510.193 195.509c1.115 9.668 1.807 19.426 1.807 29.334s-0.692 19.667-1.807 29.334l-77.945 23.432c-3.584 12.107-8.373 23.702-14.276 34.605l38.52 71.589c-12.228 15.36-26.172 29.305-41.563 41.563l-71.589-38.55c-10.933 5.903-22.528 10.661-34.635 14.276l-23.372 77.945c-9.637 1.115-19.396 1.807-29.334 1.807s-19.697-0.692-29.334-1.807l-23.371-77.945c-12.137-3.584-23.763-8.373-34.636-14.306l-71.59 38.55c-15.39-12.228-29.335-26.172-41.532-41.563l38.52-71.529c-5.903-10.903-10.662-22.528-14.276-34.636l-77.975-23.431c-1.115-9.637-1.807-19.396-1.807-29.334s0.693-19.697 1.807-29.335l77.945-23.372c3.614-12.137 8.373-23.763 14.276-34.666l-38.52-71.56c12.228-15.39 26.172-29.334 41.563-41.563l71.589 38.52c10.903-5.903 22.528-10.661 34.636-14.276l23.371-77.945c9.668-1.115 19.426-1.807 29.334-1.807s19.697 0.692 29.334 1.807l23.372 77.945c12.108 3.614 23.733 8.373 34.635 14.276l71.56-38.52c15.39 12.258 29.334 26.202 41.563 41.592l-38.49 71.56c5.903 10.902 10.661 22.528 14.276 34.635l77.945 23.372zM408.034 196.322l-4.638-15.601c-3.012-10.149-7.017-19.877-11.926-28.883l-7.71-14.306 7.68-14.306 28.672-53.308c-2.981-3.163-6.053-6.235-9.216-9.216l-67.554 36.412-14.306-7.71c-9.065-4.909-18.793-8.885-28.913-11.926l-15.601-4.638-4.668-15.601-17.438-58.188c-2.168-0.060-4.307-0.091-6.415-0.091s-4.246 0.030-6.415 0.091l-17.438 58.188-4.668 15.601-15.601 4.638c-10.119 3.012-19.847 7.017-28.883 11.926l-14.306 7.71-67.614-36.352c-3.132 2.981-6.234 6.053-9.216 9.216l36.382 67.584-7.71 14.306c-4.879 9.036-8.885 18.764-11.927 28.913l-4.608 15.571-73.758 22.106c-0.090 2.168-0.12 4.307-0.12 6.385 0 2.108 0.030 4.246 0.12 6.415l73.728 22.107 4.638 15.601c3.012 10.149 7.017 19.877 11.927 28.883l7.71 14.306-36.382 67.614c2.981 3.132 6.053 6.234 9.186 9.216l67.674-36.442 14.336 7.8c8.945 4.879 18.643 8.885 28.792 11.897l15.601 4.638 4.668 15.601 17.438 58.188c2.198 0.030 4.337 0.060 6.445 0.060s4.247-0.030 6.415-0.090l17.438-58.188 4.668-15.601 15.601-4.638c10.089-3.012 19.848-7.017 28.913-11.926l14.306-7.68 67.584 36.382c3.132-2.981 6.235-6.053 9.216-9.216l-28.702-53.308-7.68-14.306 7.74-14.306c4.909-9.036 8.885-18.733 11.897-28.822l4.638-15.601 15.601-4.668 58.188-17.499c0.030-2.168 0.060-4.307 0.060-6.415s-0.030-4.247-0.12-6.415l-73.728-22.106z" unicode=""/><glyph d="M500.074 2.093l-155.798 155.798c29.365 34.244 47.255 78.637 47.255 127.187 0 107.942-87.823 195.764-195.764 195.764-52.284 0-101.466-20.36-138.481-57.314-36.955-36.984-57.314-86.166-57.284-138.451 0-107.942 87.823-195.764 195.764-195.764 48.549 0 92.973 17.89 127.217 47.255l155.798-155.798 21.293 21.324zM195.764 119.432c-91.317 0-165.647 74.3-165.647 165.647-0.030 44.273 17.197 85.865 48.489 117.127 31.262 31.292 72.885 48.519 117.157 48.519 91.317 0 165.647-74.3 165.647-165.647 0-91.317-74.33-165.647-165.647-165.647z" unicode=""/><glyph d="M500.074 1.25l-155.798 155.798c29.365 34.244 47.255 78.607 47.255 127.187 0 107.942-87.823 195.764-195.764 195.764-52.315 0-101.466-20.36-138.451-57.344-36.984-36.954-57.314-86.137-57.314-138.421 0-107.942 87.823-195.764 195.764-195.764 48.549 0 92.943 17.89 127.217 47.255l155.798-155.798 21.293 21.324zM195.764 118.588c-91.347 0-165.647 74.3-165.647 165.647 0 44.273 17.197 85.865 48.489 117.158 31.292 31.262 72.885 48.489 117.157 48.489 91.347 0 165.647-74.3 165.647-165.647 0-91.347-74.3-165.647-165.647-165.647zM210.823 299.294h60.235v-30.117h-60.236v-60.236h-30.118v60.236h-60.236v30.118h60.236v60.236h30.118v-60.236z" unicode=""/><glyph d="M500.074 2.093l-155.798 155.798c29.365 34.244 47.255 78.637 47.255 127.187 0 107.942-87.823 195.764-195.764 195.764-52.284 0-101.466-20.36-138.481-57.314-36.955-36.984-57.314-86.166-57.284-138.451 0-107.942 87.823-195.764 195.764-195.764 48.549 0 92.973 17.89 127.217 47.255l155.798-155.798 21.293 21.324zM195.764 119.432c-91.317 0-165.647 74.3-165.647 165.647-0.030 44.273 17.197 85.865 48.489 117.127 31.262 31.292 72.885 48.519 117.157 48.519 91.317 0 165.647-74.3 165.647-165.647 0-91.317-74.33-165.647-165.647-165.647zM120.471 300.137h150.588v-30.118h-150.588v30.118z" unicode=""/><glyph d="M391.529 148.706c-16.414 0-31.594-4.728-44.875-12.409l-69.933 73.909 188.536 199.198-21.896 20.721-187.362-197.993-187.422 197.993-21.865-20.721 188.536-199.198-69.933-73.879c-13.252 7.65-28.461 12.378-44.845 12.378-49.815 0-90.353-40.538-90.353-90.353s40.538-90.353 90.353-90.353 90.353 40.538 90.353 90.353c0 22.498-8.584 42.887-22.227 58.7l67.403 71.228 67.404-71.228c-13.673-15.842-22.227-36.202-22.227-58.7 0-49.815 40.538-90.353 90.353-90.353s90.353 40.538 90.353 90.353-40.538 90.353-90.353 90.353zM120.471-1.882c-33.22 0-60.236 27.015-60.236 60.236s27.016 60.236 60.236 60.236 60.236-27.015 60.236-60.236-27.016-60.236-60.236-60.236zM391.529-1.882c-33.22 0-60.236 27.015-60.236 60.236s27.015 60.236 60.236 60.236 60.236-27.015 60.236-60.236-27.015-60.236-60.236-60.236z" unicode=""/><glyph d="M150.588 480v-512h210.823v512h-210.823zM331.294-1.882h-150.588v29.636h60.236v30.118h-60.236v30.599h30.118v30.118h-30.118v30.118h60.236v30.118h-60.236v29.636h30.118v30.118h-30.118v30.118h60.236v30.118h-60.236v30.599h30.118v30.118h-30.118v30.117h60.236v30.118h-60.236v30.118h150.588v-451.764z" unicode=""/><glyph d="M135.288 480h-59.754c-24.907 0-45.176-20.269-45.176-45.176v-320.964l75.927-149.263 74.21 149.353v320.873c-0.030 24.908-20.299 45.176-45.207 45.176zM75.535 449.882h59.754c8.282 0 15.059-6.776 15.059-15.059v-30.69h-89.871v30.69c0 8.283 6.746 15.059 15.059 15.059zM60.476 342.964v31.051h89.871v-31.051h-89.871zM118.904 57.721h-26.203l-32.226 63.368v191.759h30.118v-195.192h30.118v195.192h29.636v-191.85l-31.443-63.277zM240.941 480v-512h210.823v512h-210.823zM421.647-1.882h-150.588v29.636h60.236v30.118h-60.236v30.599h30.118v30.118h-30.118v30.118h60.236v30.118h-60.236v29.636h30.118v30.118h-30.118v30.118h60.236v30.118h-60.236v30.599h30.118v30.118h-30.118v30.117h60.236v30.118h-60.236v30.118h150.588v-451.764z" unicode=""/><glyph d="M362.496 479.548l-362.044-362.044 149.083-149.052 362.014 362.014-149.052 149.082zM43.038 117.504l20.962 20.962 42.587-42.587 21.293 21.293-42.587 42.587 21.654 21.654 21.293-21.293 21.293 21.293-21.293 21.293 21.293 21.293 42.587-42.587 21.293 21.293-42.587 42.587 20.962 20.962 21.293-21.293 21.293 21.293-21.293 21.293 21.293 21.293 42.587-42.587 21.293 21.293-42.587 42.587 21.625 21.625 21.293-21.293 21.293 21.293-21.293 21.293 21.293 21.293 42.616-42.587 21.293 21.293-42.616 42.587 21.324 21.323 106.466-106.496-319.428-319.428-106.496 106.466z" unicode=""/><glyph d="M107.279 449.882v-465.589l141.131 98.485 143.119-98.183v465.288h-284.25zM361.412 41.758l-113.122 77.644-110.863-77.342v377.705h223.985v-378.007z" unicode=""/><glyph d="M301.99 176.595v303.405h-182.332v-303.495l90.986 61.832 91.347-61.741zM149.775 233.397v216.486h122.127v-216.576l-61.35 41.442-60.778-41.352zM481.882 449.671v-451.554h-451.764v451.554h59.452v-30.118h-29.334v-391.318h391.529v391.318h-120.621v30.118h150.739z" unicode=""/><glyph d="M180.706 239.059h-180.706v180.706h30.117v-123.754c30.509 96.166 121.555 165.165 225.882 165.165 105.592 0 199.409-71.077 228.111-172.845l-29.003-8.162c-25.058 88.847-106.948 150.919-199.108 150.919-97.159-0.030-181.188-68.548-202.029-161.912h126.735v-30.118zM331.294 208.941v-30.118h126.735c-20.872-93.395-104.779-161.882-202.029-161.882-92.22 0-174.080 62.072-199.108 150.92l-29.003-8.162c28.672-101.767 122.489-172.845 228.111-172.845 104.177 0 195.012 68.668 225.882 165.105v-123.724h30.118v180.706h-180.706z" unicode=""/><glyph d="M481.882 208.941h-210.824v-210.824h-30.118v210.823h-210.823v30.118h210.823v210.824h30.118v-210.824h210.823v-30.118z" unicode=""/><glyph d="M361.412 344.471c0 58.127-47.284 105.412-105.412 105.412s-105.412-47.285-105.412-105.412c0-52.556 38.791-95.925 89.209-103.756v-242.598h30.118v242.357c51.501 6.867 91.498 50.658 91.498 103.996zM256 269.177c-41.532 0-75.294 33.762-75.294 75.294s33.762 75.294 75.294 75.294 75.294-33.762 75.294-75.294-33.762-75.294-75.294-75.294zM301.176 329.412h-30.118c0 16.625-13.493 30.117-30.118 30.117v30.118c33.22 0 60.236-27.016 60.236-60.236z" unicode=""/><glyph d="M467.697 393.954l-42.255 42.285c-17.017 17.047-46.833 17.047-63.909 0l-272.776-272.805-51.862-159.262 158.058 53.157 272.716 272.745c17.649 17.589 17.649 46.26 0.030 63.88zM93.184 79.616l19.426 59.603 58.248-58.277-59.121-19.877-18.552 18.553zM131.162 163.223l165.436 165.436 63.579-63.548-165.466-165.466-63.548 63.579zM317.892 349.982l21.956 21.956 63.579-63.548-21.956-21.956-63.579 63.548zM446.404 351.368l-21.685-21.685-63.579 63.548 21.685 21.715c5.692 5.692 15.601 5.692 21.293 0l42.255-42.285c5.903-5.903 5.903-15.42 0.030-21.293z" unicode=""/><glyph d="M496.911 424.493l-42.255 42.255c-17.046 17.047-46.833 17.047-63.909 0l-226.966-226.966-51.862-159.232 158.088 53.158 226.906 226.906c8.524 8.524 13.221 19.877 13.221 31.955s-4.699 23.401-13.221 31.925zM168.177 155.995l19.215 58.94 57.826-57.796-58.489-19.667-18.553 18.522zM205.764 239.179l120.049 120.049 63.548-63.548-120.049-120.049-63.548 63.548zM347.106 380.522l21.956 21.956 63.548-63.548-21.956-21.956-63.548 63.548zM475.618 381.907l-21.685-21.715-63.548 63.548 21.685 21.715c5.723 5.692 15.631 5.692 21.293 0l42.255-42.255c2.831-2.861 4.397-6.626 4.397-10.661s-1.566-7.771-4.397-10.632zM451.764 254.118h30.118v-286.118h-481.882v451.764h225.882v-30.118h-195.764v-391.529h421.647v256z" unicode=""/><glyph d="M451.764 419.764v60.236h-391.529v-60.236h-15.541c-24.636 0-44.694-20.329-44.694-45.327v-90.052c0-24.998 20.058-45.327 44.694-45.327h181.429c8.282 0 15.059-6.776 15.059-15.059v-45.176h-30.358v-210.823h90.353v210.823h-29.877v45.176c0 24.907-20.269 45.176-45.177 45.176h-181.429c-8.011 0-14.577 6.837-14.577 15.21v90.052c0 8.373 6.566 15.209 14.577 15.209h15.541v-90.353h391.529v90.353h30.118v30.118h-30.118zM271.059-1.882h-30.118v150.588h30.118v-150.588zM421.647 329.412h-331.294v120.47h331.294v-120.47z" unicode=""/><glyph d="M502.995 184.305l-267.084 268.77-4.036-4.005c-20.119 19.908-46.743 30.9-75.084 30.931 0 0 0 0-0.030 0-28.552 0-55.447-11.144-75.656-31.353-20.239-20.209-31.383-47.074-31.383-75.716 0-28.341 11.023-54.965 30.931-75.084l-66.5-66.53c-9.126-9.156-14.155-21.263-14.155-34.124 0-12.921 5-24.998 14.065-34.033l144.896-146.341c9.095-9.096 21.203-14.125 34.063-14.125 12.921 0 25.028 5.060 34.124 14.185l167.394 167.394 108.454 0.030zM79.842 372.962c0 20.54 8.011 39.846 22.558 54.393 14.547 14.516 33.822 22.528 54.362 22.528 0.030 0 0.030 0 0.030 0 20.299 0 39.333-7.891 53.79-22.106l-108.604-108.635c-14.246 14.487-22.136 33.521-22.136 53.82zM205.794 38.144c-3.404-3.404-7.981-5.331-12.8-5.331s-9.367 1.868-12.709 5.24l-109.508 110.652h245.579l-110.562-110.562zM346.474 178.824h-305.543l-5.511 5.602c-3.433 3.404-5.3 7.921-5.3 12.74 0 4.849 1.898 9.397 5.331 12.86l200.403 200.403 194.801-196.036-48.61-0.030-35.569-35.539zM472.486 119.823l-12.258 18.191-12.589-18.010c-9.608-13.764-41.050-60.567-41.050-84.269 0-29.063 23.642-52.706 52.706-52.706s52.706 23.673 52.706 52.736c0 23.552-30.238 70.295-39.514 84.058zM459.294 13.176c-12.438 0-22.588 10.149-22.588 22.588 0 7.228 10.511 27.708 23.070 47.917 12.047-20.179 22.106-40.629 22.106-47.917 0-12.438-10.149-22.588-22.588-22.588z" unicode=""/><glyph d="M256 464.941c-132.849 0-240.941-108.092-240.941-240.941s108.092-240.941 240.941-240.941 240.941 108.092 240.941 240.941-108.092 240.941-240.941 240.941zM256 434.824c52.706 0 100.834-19.577 137.849-51.682l-296.96-296.99c-32.136 36.984-51.712 85.142-51.712 137.849 0 116.224 94.57 210.823 210.823 210.823zM256 13.176c-52.706 0-100.834 19.577-137.849 51.682l296.96 296.99c32.135-36.984 51.712-85.142 51.712-137.849 0-116.224-94.57-210.823-210.823-210.823z" unicode=""/><glyph d="M376.471 480h-240.941c-24.907 0-45.177-20.269-45.177-45.176v-421.647c0-24.908 20.269-45.176 45.177-45.176h240.941c24.908 0 45.176 20.269 45.176 45.176v421.647c0 24.907-20.269 45.176-45.176 45.176zM135.53 449.882h240.941c8.313 0 15.059-6.746 15.059-15.059v-45.177h-271.059v45.177c0 8.313 6.746 15.059 15.059 15.059zM391.529 359.529v-240.941h-271.059v240.941h271.059zM376.471-1.882h-240.941c-8.313 0-15.059 6.747-15.059 15.059v75.294h271.059v-75.294c0-8.313-6.747-15.059-15.059-15.059zM271.059 43.294c0-8.313-6.747-15.059-15.059-15.059s-15.059 6.747-15.059 15.059 6.746 15.059 15.059 15.059 15.059-6.747 15.059-15.059z" unicode=""/><glyph d="M451.764 239.059v-30.117h-391.529v30.118h391.529z" unicode=""/><glyph d="M256 480c-83.034 0-150.588-67.554-150.588-150.588 0-41.412 16.715-80.083 47.044-108.906 2.56-2.469 5.421-4.638 8.313-6.806l3.102-2.349c5.391-4.247 11.113-7.74 16.836-11.173v-217.118l74.661 57.254 75.926-57.254v217.118c5.723 3.433 11.475 6.957 16.866 11.204l3.102 2.319c2.892 2.168 5.723 4.337 8.313 6.806 30.298 28.822 47.014 67.493 47.014 108.906 0 83.034-67.554 150.588-150.588 150.588zM301.176 43.505l-45.959 34.666-44.394-34.063v127.247c14.517-5.029 29.696-7.589 45.177-7.589s30.66 2.56 45.177 7.589v-127.85zM338.793 242.311c-1.716-1.656-3.644-3.042-5.572-4.428l-3.704-2.831c-43.52-34.183-103.544-34.154-147.004-0.030l-3.734 2.861c-1.928 1.416-3.855 2.801-5.572 4.428-24.305 23.1-37.677 54.001-37.677 87.1 0 66.44 54.031 120.471 120.47 120.471s120.471-54.031 120.471-120.471c0-33.099-13.372-64-37.677-87.1zM329.788 374.166l5.541-29.575-54.904-10.27 34.515-58.338-25.931-15.36-32.738 55.296-32.828-55.266-25.871 15.36 34.696 58.428-53.489 10.149 5.602 29.575 56.561-10.692v56.29h30.118v-56.561l58.729 10.963z" unicode=""/><glyph d="M256 480c-83.034 0-150.588-67.554-150.588-150.588 0-41.412 16.715-80.083 47.044-108.906 2.56-2.469 5.421-4.638 8.313-6.806l3.102-2.349c5.391-4.247 11.113-7.74 16.836-11.173v-217.118l74.661 57.254 75.926-57.254v217.118c5.723 3.433 11.475 6.957 16.866 11.204l3.102 2.319c2.892 2.168 5.723 4.337 8.313 6.806 30.298 28.822 47.014 67.493 47.014 108.906 0 83.034-67.554 150.588-150.588 150.588zM301.176 43.505l-45.959 34.666-44.394-34.063v127.247c14.517-5.029 29.696-7.589 45.177-7.589s30.66 2.56 45.177 7.589v-127.85zM338.793 242.311c-1.716-1.656-3.644-3.042-5.572-4.428l-3.704-2.831c-43.52-34.183-103.544-34.154-147.004-0.030l-3.734 2.861c-1.928 1.416-3.855 2.801-5.572 4.428-24.305 23.1-37.677 54.001-37.677 87.1 0 66.44 54.031 120.471 120.47 120.471s120.471-54.031 120.471-120.471c0-33.099-13.372-64-37.677-87.1zM308.706 329.412c0-29.094-23.612-52.706-52.706-52.706s-52.706 23.612-52.706 52.706 23.612 52.706 52.706 52.706 52.706-23.612 52.706-52.706z" unicode=""/><glyph d="M320.632 449.882h-23.13c-6.988 17.709-23.161 30.118-41.954 30.118h-74.3c-8.794 0-15.963-2.711-21.263-8.072-9.517-9.548-9.457-23.221-9.397-37.737v-354.756l55.748-70.024h4.488v-41.412l30.118 20.721v20.721h4.428l55.808 70.024v340.3h19.456c10.149 0 10.661-16.263 10.661-19.516v-128.482h30.118v128.482c0.030 29.214-16.745 49.634-40.779 49.634zM181.248 449.882h74.3c8.584 0 15.541-8.764 15.541-19.516v-100.954h-90.383v104.93c0 5.843-0.060 14.668 0.542 15.541zM230.912 39.529h-10.029l-40.147 50.447-0.030 209.317h90.353v-209.317l-40.147-50.447z" unicode=""/><glyph d="M471.763 308.812l-16.384 16.384c2.349 5.391 3.825 11.084 4.187 16.926 0.783 13.101-3.644 25.148-12.529 34.033l-52.555 52.555c-6.204 6.204-13.161 9.337-20.691 9.337-13.523 0-23.161-9.728-33.37-20.059l-272.143-272.143-10.090-88.998 3.163-3.132-29.274-29.274 35.931-6.686 14.668 14.637 3.132-3.132 88.968 10.029 261.933 261.964 13.733-13.733c2.168-2.168 2.831-4.337 2.289-7.379-0.783-4.247-3.885-9.337-8.524-13.975l-90.835-90.865 21.293-21.293 90.835 90.865c9.125 9.095 14.969 19.426 16.866 29.817 2.349 12.83-1.416 24.967-10.601 34.123zM160.918 68.081l-64.091-7.259-7.078 7.077 7.288 64.030 169.322 169.322 63.88-63.88-169.321-169.292zM351.533 258.666l-63.88 63.88 74.21 74.21c4.096 4.187 10.3 10.451 11.324 10.662l52.555-52.556c3.614-3.614 3.885-8.372 3.764-10.872-0.301-5.060-2.651-9.969-6.565-13.915l-71.409-71.409z" unicode=""/><glyph d="M456.162 213.339l-185.103 185.133v-400.354h-30.118v400.354l-185.103-185.133-21.323 21.323 221.485 221.455 221.485-221.485-21.324-21.293z" unicode=""/><glyph d="M473.058 224.844l-221.485-221.485-21.293 21.293 185.103 185.103h-385.265v30.118h385.295l-185.133 185.163 21.293 21.293 221.485-221.485z" unicode=""/><glyph d="M481.882 209.784h-385.295l185.103-185.103-21.293-21.293-221.455 221.455 221.485 221.485 21.293-21.293-185.133-185.133h385.295v-30.118z" unicode=""/><glyph d="M477.485 213.339l-221.485-221.455-221.485 221.455 21.293 21.293 185.133-185.103v400.354h30.117v-400.354l185.103 185.103 21.324-21.293z" unicode=""/><glyph d="M286.118 149.549c0-11.023-6.235-20.239-15.059-25.48v-64.874h-30.118v64.844c-8.855 5.24-15.059 14.457-15.059 25.51 0 16.625 13.463 30.118 30.118 30.118 16.595 0 30.117-13.462 30.117-30.118zM450.711 225.204v-213.233c0-24.908-20.269-45.177-45.176-45.177h-300.845c-24.907 0-45.176 20.269-45.176 45.176v213.233c0 24.907 20.269 45.177 45.176 45.177h0.723v59.874c0 83.034 67.554 150.588 150.588 150.588s150.588-67.554 150.588-150.588v-59.995c24.425-0.542 44.123-20.51 44.123-45.056zM135.53 270.381h240.941v59.874c0 66.44-54.031 120.471-120.471 120.471s-120.471-54.031-120.471-120.471v-59.874zM420.593 225.204c0 7.951-6.235 14.276-14.005 14.848v-0.12h-301.176v0.332h-0.723c-8.282 0-15.059-6.746-15.059-15.059v-213.233c0-8.313 6.776-15.059 15.059-15.059h300.845c8.283 0 15.059 6.747 15.059 15.059v213.233z" unicode=""/><glyph d="M59.362 420.788l159.262-424.689 36.502 228.924 228.924 36.502-424.689 159.262zM228.834 251.347l-22.016-137.999-95.985 255.97 255.97-95.985-137.969-21.986z" unicode=""/><glyph d="M391.017 270.983l-28.25-28.25-21.293 21.293 28.25 28.25c29.365 29.364 29.365 77.132 0 106.466s-77.132 29.364-106.466 0l-89.962-89.992c-29.364-29.365-29.364-77.132 0-106.466s77.132-29.365 106.466 0l21.293-21.293c-20.57-20.57-47.525-30.81-74.541-30.81s-53.971 10.27-74.511 30.81c-41.081 41.081-41.081 107.972 0 149.052l89.962 89.962c41.111 41.111 107.941 41.111 149.052 0 41.111-41.051 41.111-107.942 0-149.022zM181.971 238.035l-3.916-3.885 21.233-21.354 3.946 3.916c29.364 29.364 77.131 29.364 106.466 0s29.365-77.132 0-106.466l-91.046-91.106c-29.364-29.365-77.132-29.365-106.466 0s-29.365 77.132 0 106.466l31.865 31.894-21.293 21.293-31.864-31.894c-41.081-41.081-41.081-107.972 0-149.052 20.57-20.57 47.525-30.811 74.541-30.811s53.971 10.27 74.541 30.81l91.046 91.076c41.081 41.081 41.081 107.972 0 149.052-41.14 41.171-108.002 41.081-149.052 0.060z" unicode=""/><glyph d="M0 480v-512h512v512h-512zM30.117 299.294h271.059v-301.176h-271.059v301.176zM481.882-1.882h-150.588v301.176h150.588v-301.176zM30.117 329.412v120.47h451.764v-120.47h-451.764z" unicode=""/><glyph d="M391.529 449.882h-391.529v-331.294h391.529v331.294zM361.412 148.706h-331.294v271.059h331.294v-271.059zM512 329.412v-331.294h-391.529v91.286h30.118v-61.169h331.294v271.059h-60.717v30.118h90.835z" unicode=""/><glyph d="M331.294 449.882h-331.294v-271.059h331.294v271.059zM301.176 208.941h-271.059v210.824h271.059v-210.824zM421.647 88.471h-331.294v59.663h30.118v-29.546h271.059v210.824h-29.937v30.117h60.055v-271.059zM512 269.177v-271.059h-331.294v59.663h30.118v-29.546h271.059v210.823h-29.937v30.117h60.054z" unicode=""/><glyph d="M446.072 290.289l21.293 21.293-52.194 52.194 22.799 22.678-21.233 21.353-245.339-244.164c-14.577 10.12-32.226 16.113-51.291 16.113-49.815 0-90.353-40.538-90.353-90.353s40.538-90.353 90.353-90.353 90.353 40.538 90.353 90.353c0 19.908-6.686 38.189-17.619 53.127l158.54 157.756 52.344-52.345 21.293 21.293-52.315 52.284 21.113 21.022 52.254-52.254zM120.079 29.169c-33.22 0-60.236 27.015-60.236 60.236s27.016 60.236 60.236 60.236 60.236-27.015 60.236-60.236-27.016-60.236-60.236-60.236z" unicode=""/><glyph d="M256 68.081l-146.161 145.468 21.233 21.353 109.869-109.357v325.18h30.117v-325.18l109.839 109.327 21.233-21.353-146.131-145.438zM481.882 208.038v-194.861c0-8.313-6.747-15.059-15.059-15.059h-421.647c-8.313 0-15.059 6.747-15.059 15.059v195.012h-30.117v-195.012c0-24.908 20.269-45.176 45.176-45.176h421.647c24.908 0 45.176 20.269 45.176 45.176v194.861h-30.118z" unicode=""/><glyph d="M30.117 449.882v-451.764h451.764v451.764h-451.764zM451.764 28.236h-391.529v60.236h391.529v-60.236zM60.236 118.588v301.176h391.529v-301.176h-391.529zM427.761 173.854l-20.992-21.594-72.794 70.746-46.803-50.477-74.873 132.97-102.43-149.836-24.877 16.986 129.807 189.832 78.426-139.204 39.665 42.827 94.87-92.25z" unicode=""/><glyph d="M376.471 460.183c-52.375 0-97.913-29.877-120.471-73.457-22.558 43.58-68.096 73.457-120.471 73.457-74.722 0-135.53-60.808-135.53-135.529 0-10.331 1.446-21.052 4.638-33.672l3.283-10.572c43.129-131.132 230.671-282.895 238.652-289.25l9.427-7.589 9.427 7.589c8.493 6.837 208.595 168.599 238.743 289.551l3.373 11.084c3.042 12.107 4.457 22.558 4.457 32.858 0 74.722-60.808 135.53-135.53 135.53zM478.539 299.897l-3.404-11.143c-24.365-97.762-179.079-232.719-219.136-266.331-38.611 32.618-184.38 160.738-219.407 267.204l-3.012 9.517c-2.319 9.366-3.463 17.709-3.463 25.51 0 58.127 47.284 105.412 105.412 105.412s105.412-47.315 105.412-105.412v-7.589h30.118v7.589c0 58.127 47.284 105.412 105.412 105.412s105.412-47.285 105.412-105.412c0-7.77-1.144-15.872-3.343-24.756z" unicode=""/><glyph d="M4.608 290.981c-3.163 12.62-4.608 23.341-4.608 33.672 0 74.722 60.807 135.529 135.53 135.529 52.374 0 97.912-29.876 120.47-73.457 22.558 43.58 68.096 73.457 120.471 73.457 74.722 0 135.529-60.808 135.529-135.529 0-10.3-1.416-20.721-4.428-32.858l-3.404-11.084c-2.44-9.969-6.867-21.715-13.644-36.111l-27.226 12.83c5.903 12.589 9.698 22.558 11.897 31.352l3.373 11.113c2.199 8.885 3.313 16.987 3.313 24.757 0 58.127-47.284 105.412-105.412 105.412s-105.412-47.315-105.412-105.412h-30.118c0 58.127-47.285 105.412-105.412 105.412s-105.412-47.315-105.412-105.412c0-7.801 1.145-16.143 3.493-25.51l3.012-9.517c2.831-8.644 7.078-18.612 13.282-31.111l-26.985-13.433c-6.867 13.854-11.626 25.088-14.998 35.328l-3.313 10.572zM255.97 21.88c-24.275 19.065-93.425 76.288-149.865 150.98l-24.004-18.191c72.102-95.382 161.25-161.19 164.984-163.93l8.975-6.565 8.915 6.626c3.885 2.861 95.985 71.5 166.731 163.78l-23.884 18.341c-55.658-72.553-127.067-131.494-151.853-151.040zM426.827 256.678l-85.293-60.236-85.293 60.236-85.323-60.236-85.444 60.205-94.148-66.319 17.348-24.636 76.8 54.151 85.444-60.265 85.323 60.236 85.293-60.236 85.293 60.236 76.469-54.091 17.408 24.576-93.876 66.38z" unicode=""/><glyph d="M421.647 347.392v-218.594c0-25.781-10.149-56.23-19.125-83.065-5.391-16.204-10.993-32.918-10.993-40.087v-22.588c0-8.313-6.747-15.059-15.059-15.059s-15.059 6.747-15.059 15.059v22.588c0 12.047 5.541 28.612 12.559 49.604 7.8 23.492 17.558 52.676 17.558 73.548v218.594c0 8.283-6.204 14.547-14.396 14.547-8.373 0-15.42-6.325-15.692-14.095 0-0.091-0.060-0.18-0.060-0.271l0.030-116.254c0-8.313-6.747-15.059-15.059-15.059s-15.059 6.747-15.059 15.059l-0.030 123.061c0 0.15 0.091 0.271 0.091 0.452v42.345c0 6.988-4.216 14.547-13.433 14.547-8.252 0-15.902-6.325-16.384-13.553-0.030-0.392-0.301-0.753-0.361-1.174v-134.927c0-8.313-6.747-15.059-15.059-15.059s-15.059 6.716-15.059 15.059v147.456c0 0.662 0.301 1.265 0.392 1.897v23.943c0 7.861-7.259 14.517-15.812 14.517-8.403 0-14.969-6.355-14.969-14.517v-26.082c0.060-0.452 0.271-0.844 0.271-1.325v0-147.456c0-8.313-6.746-15.059-15.059-15.059s-15.059 6.746-15.059 15.059v0 138.3c0 0.12-0.090 0.211-0.12 0.332-0.994 7.168-7.469 12.589-15.059 12.589-8.403 0-15.209-6.536-15.209-14.547v-171.821c0-6.264-3.855-11.866-9.698-14.065-5.752-2.199-12.439-0.603-16.595 4.066l-33.642 37.767c-11.836 13.824-19.757 9.366-22.678 7.68-3.493-1.958-5.993-5.15-6.987-8.945-0.964-3.644-0.421-7.469 1.506-10.752l99.148-211.094c1.386-2.199 4.758-4.668 8.855-5.662 6.776-1.627 11.505-7.68 11.505-14.637v-26.654c0-8.313-6.746-15.059-15.059-15.059s-15.059 6.747-15.059 15.059v16.444c-6.957 3.855-12.74 9.457-16.866 16.414l-99.117 211.125c-5.421 9.005-7.078 21.022-4.036 32.557 3.102 11.656 10.662 21.383 21.263 27.407 20.359 11.475 42.828 6.204 60.236-14.095l7.138-8.012v132.276c0 24.636 20.329 44.664 45.327 44.664 5.24 0 10.331-0.903 15.059-2.56 2.018 22.799 21.383 40.719 44.906 40.719 24.124 0 43.942-18.191 45.809-41.171 5.15 1.928 10.722 3.012 16.505 3.012 24.425 0 43.55-19.606 43.55-44.664v-7.891c4.909 1.777 10.18 2.74 15.661 2.74 24.938 0.030 44.484-19.577 44.484-44.635z" unicode=""/><glyph d="M459.053 316.762l-35.78-242.868c-3.554-18.432-11.716-26.503-17.649-32.406-5.752-5.723-9.577-9.517-9.577-28.1v-30.329c0-8.313-6.747-15.059-15.059-15.059s-15.059 6.747-15.059 15.059v30.329c0 28.762 8.373 39.424 18.492 49.453 4.668 4.638 7.469 7.439 9.156 16.083l35.69 242.116c0.542 3.705 1.536 16.264-8.222 17.619-3.373 0.482-6.114-0.060-8.283-1.716-2.892-2.139-4.94-6.294-5.662-11.385l-14.969-99.87c-0.753-5.15-4.156-9.517-8.915-11.596s-10.27-1.506-14.577 1.476c-1.506-0.241-4.036 0.692-6.565 2.349-4.578 2.921-7.198 8.072-6.897 13.493l8.584 159.202c0.692 8.373-5.12 15.33-13.011 16.023-3.825 0.361-7.5-0.844-10.421-3.283-2.952-2.47-4.699-5.903-5.029-9.668l-13.945-144.023c-0.783-8.101-7.198-13.975-15.993-13.583-2.44 0.15-4.909 0.301-7.409 0.332-8.101 0.18-14.607 6.716-14.757 14.788l-3.464 184.29c0 8.072-6.325 14.396-14.095 14.396s-14.095-6.325-14.095-14.095l-3.554-198.355c-0.12-5.722-3.434-10.903-8.613-13.342-1.868-0.903-3.674-1.807-5.391-2.771-4.428-2.53-9.819-2.62-14.336-0.241-4.518 2.349-7.559 6.837-8.071 11.897l-15.511 160.497c-0.332 3.945-2.108 7.379-5 9.819-2.922 2.439-6.867 3.554-10.391 3.283-3.795-0.332-7.198-2.108-9.637-5.029-2.41-2.892-3.584-6.565-3.252-10.33l15.149-213.745c0.482-6.565-3.404-12.709-9.548-15.089-6.204-2.409-13.191-0.512-17.257 4.668l-46.713 58.82c-6.114 10.24-16.926 13.101-25.299 8.252-4.096-2.38-7.017-6.174-8.222-10.722-1.204-4.517-0.603-9.276 1.807-13.342l106.285-183.326c2.41-4.187 6.355-7.108 11.053-8.252 6.746-1.627 11.505-7.68 11.505-14.637v-20.781c0-8.313-6.746-15.059-15.059-15.059s-15.059 6.747-15.059 15.059v10.541c-7.65 4.126-14.005 10.27-18.492 18.010l-106.316 183.326c-6.415 11.023-8.132 23.884-4.819 36.202 3.252 12.348 11.174 22.649 22.257 29.063 22.829 13.162 52.043 5.331 65.174-17.438l15.239-19.095-11.716 165.135c-1.024 11.505 2.59 23.010 10.18 32.106 7.589 9.036 18.311 14.607 30.088 15.661 11.957 1.084 23.341-2.62 32.436-10.24 4.397-3.704 7.921-8.101 10.541-12.981l0.422 22.678c0 24.154 19.847 43.972 44.212 43.972s44.212-19.848 44.212-44.243l0.421-22.468c2.651 4.909 6.204 9.337 10.632 13.071 9.125 7.65 20.721 11.324 32.467 10.24 24.425-2.139 42.526-23.732 40.388-48.128l-1.596-29.455c0.783 0.692 1.627 1.356 2.44 1.988 8.674 6.505 19.185 9.036 30.66 7.469 23.642-3.283 37.587-24.576 33.792-51.712z" unicode=""/><glyph d="M420.533 311.341v-176.007c0-23.401-11.535-37.376-19.968-47.556-7.048-8.553-10.722-13.342-10.722-20.901v-53.7c0-8.313-6.747-15.059-15.059-15.059s-15.059 6.747-15.059 15.059v53.7c0 18.764 9.788 30.599 17.649 40.087 7.288 8.825 13.071 15.781 13.071 28.341v176.037c0 9.397-8.072 18.252-16.595 18.252-9.909 0-12.017-1.536-12.108-1.596-1.988-2.68-1.928-17.137-1.897-28.792 0.030-5.692 0.060-12.047-0.060-19.035-0.12-8.252-6.415-14.396-15.18-14.848-8.252 0.060-14.938 6.776-14.938 15.059v63.85c0 9.246-6.686 16.203-15.541 16.203-8.132 0-14.095-6.053-14.818-14.697v-60.325c0-8.313-6.747-15.059-15.059-15.059s-15.059 6.747-15.059 15.059v0 60.566c0 0.091-0.060 0.181-0.060 0.301v23.281c0 1.988-0.421 19.336-14.276 19.336-13.553 0-15.601-12.108-15.601-19.336v-21.172c0-0.844-0.332-1.627-0.482-2.44v-78.125c0-8.313-6.746-15.059-15.059-15.059s-15.059 6.746-15.059 15.059v0 80.836c-1.446 5.843-5.662 11.746-14.035 11.746-8.613 0-15.872-7.861-15.872-17.167v-100.894c0-0.211-0.18-0.392-0.18-0.602v-33.16c0-8.313-6.746-15.059-15.059-15.059s-15.059 6.747-15.059 15.059v25.118c-5.3 1.928-12.981 3.494-17.378 2.5-3.554-0.692-7.138-3.825-9.367-8.162-1.777-3.404-4.156-10.451-0.271-19.185l51.14-111.947c0.482-1.054 0.813-2.139 1.054-3.252 1.686-8.283 9.397-13.733 17.709-12.981 4.186 0.542 8.463-0.904 11.655-3.764 3.162-2.861 5-6.927 5-11.204v-52.525c0-8.313-6.746-15.059-15.059-15.059s-15.059 6.747-15.059 15.059v38.731c-16.143 4.187-29.184 16.896-33.34 33.882l-50.567 110.683c-6.626 14.938-6.234 31.412 0.964 45.387 6.445 12.439 17.709 21.353 30.148 23.883 6.325 1.295 14.878 0.934 23.341-0.783v21.685c0 0.301 0.15 0.572 0.18 0.874v55.717c0 26.082 20.661 47.284 45.989 47.284 6.024 0 11.806-1.204 17.047-3.373 5.994 19.396 22.076 31.834 43.159 31.834 20.118 0 35.9-12.709 41.834-31.955 5.361 2.259 11.234 3.493 17.438 3.493 20.751 0 37.888-13.372 43.58-32.286 5.512 1.204 11.113 1.476 16.143 1.476 25.359 0 46.743-22.137 46.743-48.369z" unicode=""/><glyph d="M240.941 359.529l-58.97 60.236h-181.971v-451.764h512v391.529h-271.059zM169.321 389.647l58.97-60.236h253.59v-61.048l-451.764 0.783v120.501h139.204zM30.117-1.882v240.911l451.764-0.783v-240.128h-451.764z" unicode=""/><glyph d="M391.529 178.582v278.227l-357.767-139.113 357.767-139.113zM361.412 222.584l-244.585 95.112 244.585 95.141v-190.253zM451.764 480v-512h-30.118v512h30.118z" unicode=""/><glyph d="M451.764 480v-512h-30.118v512h30.118zM45.989 450.605h345.54v-240.941h-346.052l87.673 119.025-87.16 121.916zM361.412 420.488h-256.844l65.807-92.040-65.295-88.666h256.332v180.706z" unicode=""/><glyph d="M451.764 480v-512h-30.118v512h30.118zM150.107 449.882h240.941v-240.941h-150.107v-60.236h-210.823v240.941h119.988v60.236zM210.823 208.941h-60.236v150.588h-90.353v-180.706h150.588v30.118zM180.224 419.764v-30.118h0.482v-150.588h180.224v180.706h-180.706z" unicode=""/><glyph d="M510.946 214.452c-38.671 98.394-141.161 164.533-254.946 164.533s-216.275-66.139-254.946-164.533c-1.385-3.524-1.385-7.469 0-10.993 38.701-98.425 141.161-164.563 254.946-164.563s216.245 66.108 254.946 164.532c1.415 3.554 1.415 7.469 0 11.023zM256 69.014c-99.328 0-188.808 55.988-224.648 139.927 35.81 83.938 125.29 139.927 224.648 139.927s188.837-55.989 224.648-139.927c-35.84-83.908-125.32-139.927-224.648-139.927zM256 318.66c-60.507 0-109.719-49.212-109.719-109.718s49.212-109.719 109.748-109.719c60.476 0 109.719 49.212 109.719 109.719s-49.243 109.719-109.749 109.719zM256 129.34c-43.911 0-79.631 35.719-79.631 79.601s35.749 79.601 79.631 79.601c43.882 0 79.601-35.719 79.601-79.601s-35.69-79.601-79.601-79.601zM256 249.811c-22.528 0-40.87-18.341-40.87-40.869s18.341-40.87 40.87-40.87 40.87 18.341 40.87 40.87-18.341 40.87-40.87 40.87zM256 198.189c-5.933 0-10.752 4.819-10.752 10.752s4.819 10.752 10.752 10.752 10.752-4.819 10.752-10.752-4.819-10.752-10.752-10.752z" unicode=""/><glyph d="M131.283 300.62l-21.624 20.992 146.341 150.739 146.341-150.739-21.625-20.962-109.659 112.941v-324.277h-30.118v324.276l-109.659-112.971zM481.882 208.038v-194.861c0-8.313-6.747-15.059-15.059-15.059h-421.647c-8.313 0-15.059 6.747-15.059 15.059v195.012h-30.117v-195.012c0-24.908 20.269-45.176 45.176-45.176h421.647c24.908 0 45.176 20.269 45.176 45.176v194.861h-30.118z" unicode=""/><glyph d="M180.706 26.94v212.119h-30.118v-212.119l-109.809 109.809-21.293-21.293 146.161-146.161 146.191 146.191-21.293 21.293-109.839-109.839zM165.286 12.243h0.692l-0.332-0.361-0.362 0.361zM471.221 311.221l-109.809 109.839v-213.715h-30.118v213.715l-109.809-109.839-21.323 21.323 146.191 146.161 146.191-146.191-21.324-21.293z" unicode=""/><glyph d="M60.236 148.706h391.529v240.941h-391.529v-240.941zM90.353 359.529h331.294v-180.706h-331.294v180.706zM466.824 449.882h-421.647c-24.907 0-45.176-19.215-45.176-42.858v-305.814c0-23.642 20.269-42.858 45.176-42.858h421.647c24.907 0 45.176 19.215 45.176 42.858v305.815c0 23.642-20.269 42.858-45.176 42.858zM481.882 101.211c0-7.048-6.776-12.74-15.059-12.74h-421.647c-8.282 0-15.059 5.692-15.059 12.74v305.815c0 7.048 6.776 12.74 15.059 12.74h421.647c8.283 0 15.059-5.692 15.059-12.74v-305.815zM150.588 28.236h210.823v-30.118h-210.823v30.118z" unicode=""/><glyph d="M511.97 449.882h-67.976c0.030 5.060 0.241 9.879 0.241 15.059v15.059h-376.471v-15.059c0-4.819 0.121-10.029 0.15-15.059h-67.885l-0.030-15.029c-0.090-32.708 1.867-66.228 5.873-99.69 10.601-88.455 38.279-190.976 84.179-213.444 5.843-2.892 11.897-4.337 17.95-4.337 7.168 0 14.427 2.048 21.293 6.204l6.294 4.216c25.088-38.46 59.332-64.421 105.351-69.21v-60.476h-88.938v-30.118h210.824v30.118h-91.769v60.145c42.616 4.488 77.854 28.16 105.201 69.632l7.048-4.668c6.505-3.916 13.462-5.843 20.51-5.843 6.053 0 12.168 1.445 18.131 4.367 45.899 22.468 73.577 124.988 84.179 213.444 4.005 33.43 5.963 66.981 5.873 99.689l-0.030 14.999zM120.109 153.705l-6.897-4.638c-3.373-1.988-6.144-2.108-9.879-0.301-23.642 11.596-54.453 80.565-67.554 190.012-3.252 27.106-5.090 54.272-5.541 80.986h38.34c2.921-88.064 15.451-194.801 53.971-269.733l-2.439 3.675zM256 87.236c-136.734 0-156.582 242.447-158.028 362.647h316.055c-1.476-142.185-25.238-362.647-158.028-362.647zM476.22 338.779c-13.132-109.447-43.911-178.417-67.554-190.012-3.704-1.837-6.505-1.747-9.276-0.091l-7.529 5.029-3.493-5.24c32.497 61.38 51.411 152.576 55.145 271.3h38.279c-0.482-26.714-2.319-53.88-5.572-80.986z" unicode=""/><glyph d="M380.265 276.917l-122.971 200.975-126.826-201.036-135.5 115.441 52.374-394.18h417.28l52.345 393.788-136.704-114.989zM73.698 28.236l-4.005 30.118h372.586l-4.005-30.118h-364.574zM446.284 88.471h-380.567l-30.57 230.009 102.279-87.1 119.476 189.44 115.983-189.5 104.026 87.522-30.63-230.37z" unicode=""/><glyph d="M512 434.824v-240.007c0-24.908-20.269-45.176-45.176-45.176h-15.3v30.118h15.3c8.313 0 15.059 6.776 15.059 15.059v240.007c0 8.283-6.747 15.059-15.059 15.059h-421.647c-8.313 0-15.059-6.776-15.059-15.059v-240.007c0-8.283 6.746-15.059 15.059-15.059h45.177v-87.1l53.579 47.255 19.908-22.588-103.605-91.407v123.724h-15.059c-24.907 0-45.176 20.269-45.176 45.176v240.007c0 24.907 20.269 45.176 45.176 45.176h421.647c24.907 0 45.176-20.269 45.176-45.176zM422.25 192.678v-91.648c0-24.908-20.269-45.176-45.176-45.176h-15.059v-92.281l-110.442 92.281h-25.69c-24.907 0-45.177 20.269-45.177 45.176v91.648c0 24.908 20.269 45.177 45.177 45.177h151.19c24.908 0 45.176-20.269 45.176-45.177zM392.132 192.678c0 8.283-6.747 15.059-15.059 15.059h-151.19c-8.313 0-15.059-6.776-15.059-15.059v-91.648c0-8.283 6.746-15.059 15.059-15.059h36.653l69.361-58.007v58.007h45.176c8.313 0 15.059 6.776 15.059 15.059v91.648z" unicode=""/><glyph d="M466.824 480h-421.647c-24.907 0-45.176-20.269-45.176-45.176v-301.176c0-24.908 20.269-45.176 45.176-45.176h15.059v-123.542l141.191 123.543h265.397c24.907 0 45.176 20.269 45.176 45.176v301.176c0 24.908-20.269 45.176-45.176 45.176zM481.882 133.647c0-8.283-6.747-15.059-15.059-15.059h-276.721l-99.749-87.281v87.281h-45.176c-8.313 0-15.059 6.776-15.059 15.059v301.176c0 8.283 6.746 15.059 15.059 15.059h421.647c8.313 0 15.059-6.776 15.059-15.059v-301.176z" unicode=""/><glyph d="M466.824 480h-421.647c-24.907 0-45.176-20.269-45.176-45.176v-301.176c0-24.908 20.269-45.176 45.176-45.176h15.059v-123.542l141.191 123.543h265.397c24.907 0 45.176 20.269 45.176 45.176v301.176c0 24.908-20.269 45.176-45.176 45.176zM481.882 133.647c0-8.283-6.747-15.059-15.059-15.059h-276.721l-99.749-87.281v87.281h-45.176c-8.313 0-15.059 6.776-15.059 15.059v301.176c0 8.283 6.746 15.059 15.059 15.059h421.647c8.313 0 15.059-6.776 15.059-15.059v-301.176zM90.353 389.647h331.294v-30.118h-331.294v30.118zM90.353 329.412h331.294v-30.118h-331.294v30.118zM90.353 269.177h180.706v-30.118h-180.706v30.118z" unicode=""/><glyph d="M277.293 224l200.162-200.162-21.293-21.293-200.162 200.162-200.162-200.162-21.293 21.293 200.162 200.162-200.192 200.162 21.293 21.293 200.192-200.162 200.162 200.162 21.293-21.293-200.162-200.162z" unicode=""/><glyph d="M362.044 352.482v-255.94h-30.118v255.94c0 32.858-24.064 68.247-76.921 68.247-58.459 0-74.060-42.888-74.060-68.247v-244.585h0.211v-43.882c0-18.673 20.871-36.322 42.948-36.322 25.419 0 47.194 20.57 47.194 37.376v8.132h-0.091l0.241 229.406c0 26.323-7.439 26.323-14.035 26.323-11.113 0-16.475-1.054-16.475-24.787v-154.986h-30.118v154.986c0 13.583 0 54.904 46.592 54.904 20.149 0 44.152-9.788 44.152-56.471l-0.211-193.656h0.060v-43.882c0-35.328-36.864-67.493-77.312-67.493-38.912 0-73.065 31.051-73.065 66.44v2.228h-0.211v286.268c0 47.375 32.588 98.364 104.177 98.364 70.264-0.030 107.038-49.483 107.038-98.364z" unicode=""/><glyph d="M492.544 121.721l-21.293-21.293-215.251 215.221-215.22-215.221-21.293 21.293 236.514 236.514 236.544-236.514z" unicode=""/><glyph d="M397.764 224.844l-236.544-236.544-21.293 21.293 215.22 215.22-215.22 215.281 21.293 21.293 236.544-236.544z" unicode=""/><glyph d="M156.822 224.874l215.221-215.251-21.293-21.293-236.514 236.544 236.544 236.514 21.293-21.293-215.251-215.221z" unicode=""/><glyph d="M492.544 327.153l-236.574-236.544-236.514 236.544 21.293 21.293 215.19-215.221 215.281 215.251 21.324-21.323z" unicode=""/><glyph d="M464.354 426.572l-266.029-406.137-148.119 132.096 20.058 22.468 122.007-108.845 246.905 376.923 25.178-16.505z" unicode=""/><glyph d="M421.647 306.492h30.118v-308.375h-421.647v421.647h252.777v-30.118h-222.66v-361.412h361.412v278.257zM146.191 234.661l-21.323-21.324 103.424-103.424 228.502 346.714-25.148 16.595-208.173-315.874-77.282 77.312z" unicode=""/><glyph d="M179.441 389.647v30.118h-87.823v-30.118h-91.618v-361.412h512v361.412h-332.559zM481.882 58.353h-451.764v210.824h197.482c-10.391-17.8-16.775-38.22-16.775-60.236 0-66.44 54.031-120.471 120.471-120.471s120.471 54.031 120.471 120.471c0 22.016-6.385 42.436-16.776 60.236h46.893v-210.823zM421.647 208.941c0-49.815-40.538-90.353-90.353-90.353s-90.353 40.538-90.353 90.353 40.538 90.353 90.353 90.353 90.353-40.538 90.353-90.353zM410.142 299.294c-21.203 18.492-48.55 30.118-78.848 30.118s-57.645-11.625-78.848-30.118h-222.328v60.236h451.764v-60.236h-71.74z" unicode=""/><glyph d="M496.007 413.079h-58.036c-8.794 0-15.993-7.048-15.993-15.692v-20.089l-331.144-121.374v8.132c0 12.951-10.782 23.522-24.004 23.522h-42.828c-13.222 0-24.004-10.572-24.004-23.522v-141.192c0-12.921 10.782-23.522 24.004-23.522h42.828c13.192 0 24.004 10.601 24.004 23.522v9.969l31.142-5.692c-0.692-4.909-1.144-9.819-1.144-14.788 0-57.133 47.013-103.635 104.779-103.635 49.905 0 91.257 33.973 101.798 80.776l94.57-17.348v-19.848c0-8.644 7.198-15.692 15.993-15.692h58.036c8.795 0 15.993 7.048 15.993 15.692v345.088c0 8.644-7.198 15.692-15.993 15.692zM225.612 38.837c-41.171 0-74.662 32.979-74.662 73.517 0 3.132 0.813 6.174 1.204 9.276l145.769-26.745c-7.951-32.587-37.195-56.049-72.313-56.049zM481.882 66.726h-29.786v30.509l-391.379 71.77v-39.514h-30.599v128h30.599v-44.695l391.379 143.45v26.715h29.786v-316.236z" unicode=""/><glyph d="M479.262 426.331l-195.764-286.118-24.847 16.986 195.764 286.118 24.847-16.986zM271.059 58.594c0-33.22-27.016-60.236-60.236-60.236-6.114 0-16.203-0.452-16.293-0.452h-164.262l137.125 103.334c4.518 3.132 25.871 17.589 43.429 17.589 33.22 0 60.235-27.015 60.235-60.236zM240.941 58.594c0 16.595-13.523 30.118-30.118 30.118-5.27 0-17.529-6.114-25.691-11.836l-64.844-48.881h73.276c1.898 0.091 11.324 0.482 17.257 0.482 16.595 0 30.118 13.523 30.118 30.118z" unicode=""/><glyph d="M210.823 88.471v45.176h30.118v-15.059h30.117v15.059h30.118v-45.176h-90.353zM512 148.706h-30.118v-180.706h-451.764v180.706h-30.117v240.941h108.906c28.25 55.115 84.48 90.353 147.094 90.353s118.875-35.268 147.095-90.353h108.905v-240.941zM143.631 389.647h224.798c-24.847 37.135-66.56 60.236-112.399 60.236s-87.552-23.13-112.399-60.236zM451.764 148.706h-391.529v-150.588h391.529v150.588zM481.882 359.529h-451.764v-180.706h451.764v180.706z" unicode=""/><glyph d="M431.074 419.404h-215.401l-70.204-211.245h50.176l-60.536-182.272 285.606 242.477h-87.462l97.822 151.040zM338.733 238.245l-141.161-119.838 39.815 119.838h-50.146l50.146 151.040h138.3l-97.822-151.040h60.868z" unicode=""/><glyph d="M356.292 239.059l-115.23-217.841-26.624 14.065 91.859 173.659h-153.871l147.576 219.226 24.967-16.836-115.983-172.273h147.305z" unicode=""/><glyph d="M271.059 419.764v60.236h-30.118v-60.236h-210.823v-301.176h451.764v301.176h-210.823zM451.764 148.706h-391.529v240.941h391.529v-240.941zM105.412 88.471h301.176v-30.118h-77.824l45.297-70.053-25.299-16.354-55.868 86.408h-21.836v-90.353h-30.118v90.353h-21.444l-56.29-86.438-25.238 16.414 45.598 70.024h-78.156v30.118z" unicode=""/><glyph d="M391.529 359.529v72.101c0 26.654-22.197 48.369-49.483 48.369h-171.641c-27.256 0-49.453-21.715-49.453-48.369v-72.101h-90.835v-391.529h451.764v391.529h-90.353zM151.070 431.631c0 10.060 8.674 18.252 19.335 18.252h171.641c10.692 0 19.365-8.192 19.365-18.252v-72.101h-210.341v72.101zM451.764-1.882h-391.529v240.941h391.529v-240.941zM451.764 269.177h-391.529v60.236h60.717v-19.365h30.117v19.365h210.341v-19.365h30.118v19.365h60.236v-60.236z" unicode=""/><glyph d="M409.69 138.195l-21.263 21.324 49.514 49.423h-166.882v-166.882l49.423 49.514 21.324-21.263-85.805-85.986-85.805 85.986 21.323 21.263 49.423-49.514v166.882h-166.882l49.513-49.423-21.263-21.324-85.986 85.805 85.986 85.805 21.263-21.324-49.513-49.423h166.882v166.882l-49.423-49.514-21.323 21.263 85.805 85.986 85.805-85.986-21.324-21.263-49.423 49.514v-166.882h166.882l-49.514 49.423 21.263 21.324 85.986-85.805-85.986-85.805z" unicode=""/><glyph d="M350.63 116.691l21.564-21.022-116.194-119.115-116.194 119.085 21.564 21.022 79.571-81.529v377.736l-79.571-81.558-21.564 21.052 116.194 119.085 116.194-119.085-21.564-21.022-79.571 81.529v-377.765l79.571 81.589z" unicode=""/><glyph d="M503.447 224l-119.085-116.194-21.022 21.564 81.529 79.571h-377.736l81.558-79.571-21.022-21.564-119.115 116.194 119.085 116.194 21.022-21.564-81.528-79.571h377.765l-81.558 79.571 21.022 21.564 119.085-116.194z" unicode=""/><glyph d="M481.762 138.104l0.12-139.987-140.017 0.12 0.030 30.118 88.546-0.091-174.441 174.411-174.441-174.442 88.546 0.091 0.030-30.118-140.017-0.091 0.12 140.017 30.117-0.030-0.090-88.516 174.441 174.411-174.441 174.442 0.090-88.516-30.117-0.030-0.12 139.987 140.017-0.12-0.030-30.118-88.546 0.091 174.441-174.442 174.441 174.442-88.546-0.091-0.030 30.118 140.017 0.12-0.12-140.017-30.118 0.030 0.091 88.516-174.441-174.411 174.442-174.442-0.091 88.516 30.118 0.030z" unicode=""/><glyph d="M481.882 449.973v-271.149h-30.118v219.768l-310.724-310.121-21.293 21.324 310.663 310.061h-220.34v30.118h271.812z" unicode=""/><glyph d="M370.206 88.471l-310.724 310.122v-219.768h-30.117v271.149h271.812v-30.118h-220.34l310.663-310.061-21.293-21.324z" unicode=""/><glyph d="M256 305.529l131.132-131.132-21.293-21.293-109.839 109.839-109.809-109.809-21.293 21.293 131.102 131.102zM512 224c0-141.161-114.839-256-256-256s-256 114.839-256 256 114.838 256 256 256 256-114.839 256-256zM481.882 224c0 124.567-101.316 225.882-225.882 225.882s-225.882-101.316-225.882-225.882 101.316-225.882 225.882-225.882 225.882 101.316 225.882 225.882z" unicode=""/><glyph d="M206.427 355.132l131.102-131.132-131.132-131.132-21.293 21.293 109.839 109.839-109.839 109.809 21.323 21.324zM512 224c0-141.161-114.839-256-256-256s-256 114.839-256 256 114.838 256 256 256 256-114.839 256-256zM481.882 224c0 124.567-101.316 225.882-225.882 225.882s-225.882-101.316-225.882-225.882 101.316-225.882 225.882-225.882 225.882 101.316 225.882 225.882z" unicode=""/><glyph d="M326.897 333.809l-109.839-109.809 109.809-109.809-21.293-21.293-131.102 131.102 131.132 131.132 21.293-21.324zM512 224c0-141.161-114.839-256-256-256s-256 114.839-256 256 114.838 256 256 256 256-114.839 256-256zM481.882 224c0 124.567-101.316 225.882-225.882 225.882s-225.882-101.316-225.882-225.882 101.316-225.882 225.882-225.882 225.882 101.316 225.882 225.882z" unicode=""/><glyph d="M365.809 294.897l21.293-21.293-131.102-131.132-131.132 131.102 21.293 21.293 109.839-109.809 109.809 109.839zM512 224c0-141.161-114.839-256-256-256s-256 114.839-256 256 114.838 256 256 256 256-114.839 256-256zM481.882 224c0 124.567-101.316 225.882-225.882 225.882s-225.882-101.316-225.882-225.882 101.316-225.882 225.882-225.882 225.882 101.316 225.882 225.882z" unicode=""/><glyph d="M256 297.096l206.427-206.427-21.293-21.293-185.133 185.133-185.103-185.103-21.293 21.293 206.396 206.396zM256 400.369l185.103-185.103 21.293 21.293-206.396 206.427-206.427-206.427 21.323-21.293 185.103 185.103z" unicode=""/><glyph d="M290.454 224l-206.427-206.427-21.293 21.293 185.103 185.133-185.103 185.103 21.293 21.324 206.427-206.427zM229.918 430.426l-21.293-21.323 185.103-185.103-185.103-185.103 21.293-21.293 206.396 206.396-206.396 206.427z" unicode=""/><glyph d="M240.549 224l185.103-185.103-21.293-21.293-206.396 206.396 206.427 206.427 21.293-21.293-185.133-185.133zM279.793 409.133l-21.293 21.293-206.427-206.426 206.427-206.427 21.293 21.293-185.103 185.133 185.103 185.133z" unicode=""/><glyph d="M256 159.428l-206.427 206.427 21.293 21.293 185.133-185.103 185.103 185.103 21.293-21.293-206.396-206.426zM256 56.124l-185.103 185.133-21.323-21.293 206.427-206.427 206.427 206.427-21.293 21.293-185.133-185.133z" unicode=""/><glyph d="M291.147 480h-230.912v-512h391.529v352.135l-160.618 159.865zM301.176 427.535l98.575-98.123h-98.575v98.123zM90.353-1.882v451.764h90.353v-30.118h30.118v30.118h60.235v-150.588h150.588v-301.176h-331.294zM150.588 239.059h30.118v-30.117h-30.118v30.118zM180.706 239.059v30.118h30.118v-30.118h-30.118zM180.706 299.294v30.118h30.118v-30.118h-30.118zM150.588 299.294h30.118v-30.117h-30.118v30.117zM150.588 359.529h30.118v-30.117h-30.118v30.117zM180.706 359.529v30.118h30.118v-30.118h-30.118zM150.588 419.764h30.118v-30.118h-30.118v30.118zM180.706 197.226c-33.22 0-60.236-27.015-60.236-60.236s27.016-60.236 60.236-60.236c1.868 0 3.644 0.211 6.596 0.603 19.456 2.139 36.684 13.704 46.11 30.901 5 9.125 7.53 18.793 7.53 28.732 0 33.22-27.016 60.236-60.236 60.236zM206.999 122.684c-4.698-8.584-13.282-14.366-22.95-15.42l-3.373-0.421c-16.595 0-30.088 13.523-30.088 30.118s13.523 30.118 30.118 30.118 30.118-13.523 30.118-30.118c0-4.788-1.295-9.608-3.825-14.276z" unicode=""/><glyph d="M256.482 480c-141.161 0-256-114.839-256-256s114.838-256 256-256 256 114.839 256 256-114.868 256-256 256zM31.352 208.941h88.456c1.325-30.841 6.355-61.169 15.451-90.353h-78.396c-14.486 27.286-23.371 57.916-25.509 90.353zM119.808 239.059h-88.456c2.139 32.436 11.023 63.066 25.51 90.353h78.306c-9.066-29.184-14.065-59.512-15.36-90.353zM167.063 329.412h177.573c9.939-29.064 15.721-59.392 17.137-90.353h-211.847c1.386 30.961 7.198 61.29 17.137 90.353zM149.925 208.941h211.877c-1.476-30.961-7.259-61.289-17.228-90.353h-177.423c-9.969 29.063-15.781 59.392-17.227 90.353zM391.921 208.941h89.69c-2.139-32.437-11.023-63.067-25.51-90.353h-79.631c9.096 29.184 14.125 59.512 15.45 90.353zM391.921 239.059c-1.295 30.84-6.295 61.169-15.36 90.353h79.541c14.457-27.286 23.341-57.916 25.51-90.353h-89.69zM436.766 359.529h-70.897c-11.806 28.763-27.588 55.959-46.683 81.317 47.526-13.764 88.486-42.767 117.579-81.317zM273.288 449.039c24.817-27.015 44.695-57.224 59.392-89.51h-153.66c14.667 32.256 34.515 62.434 59.332 89.45 5.994 0.452 11.987 0.904 18.131 0.904 5.662 0 11.234-0.452 16.805-0.844zM192.241 440.456c-18.944-25.239-34.666-52.315-46.381-80.926h-69.692c28.763 38.159 69.18 66.981 116.074 80.926zM76.168 88.471h69.782c11.776-28.642 27.558-55.748 46.592-80.986-47.013 13.884-87.552 42.737-116.374 80.986zM238.713-0.979c-24.877 27.015-44.815 57.194-59.572 89.45h153.419c-14.757-32.286-34.695-62.494-59.603-89.51-5.452-0.392-10.933-0.844-16.474-0.844-6.024 0-11.897 0.452-17.769 0.904zM318.856 7.063c19.155 25.359 35.057 52.615 46.893 81.408h71.017c-29.154-38.641-70.234-67.674-117.911-81.408z" unicode=""/><glyph d="M328.313 92.988l29.425-6.415c-15.209-69.813-75.625-118.573-146.914-118.573-83.034 0-150.588 67.554-150.588 150.588 0 68.367 46.11 128.271 112.188 145.649l7.65-29.124c-52.827-13.915-89.721-61.831-89.721-116.525 0-66.44 54.031-120.471 120.471-120.471 57.013 0 105.321 39.002 117.489 94.87zM481.882 24.591v-30.118h-56.26l-28.762 124.024h-185.464l-16.384 243.411c-25.51 7.017-44.423 30.148-44.423 57.856 0 33.22 27.016 60.236 60.236 60.236s60.236-27.015 60.236-60.236c0-28.25-19.577-51.803-45.809-58.308l8.132-120.802 109.388 27.136 7.228-29.244-114.597-28.401 4.156-61.5h181.248l28.762-124.024h32.316zM210.823 389.647c16.625 0 30.118 13.523 30.118 30.118s-13.493 30.118-30.118 30.118-30.118-13.523-30.118-30.118 13.493-30.118 30.118-30.118z" unicode=""/><glyph d="M0 480v-120.471h512v120.471h-512zM481.882 389.647h-451.764v60.236h451.764v-60.236zM0 178.824h512v120.471h-512v-120.471zM30.117 269.177h451.764v-60.236h-451.764v60.236zM0-1.882h512v120.471h-512v-120.471zM30.117 88.471h451.764v-60.236h-451.764v60.236z" unicode=""/><glyph d="M150.588 480v-120.471h361.412v120.471h-361.412zM481.882 389.647h-301.176v60.236h301.176v-60.236zM150.588 178.824h361.412v120.471h-361.412v-120.471zM180.706 269.177h301.176v-60.236h-301.176v60.236zM150.588-1.882h361.412v120.471h-361.412v-120.471zM180.706 88.471h301.176v-60.236h-301.176v60.236zM0 359.529h120.471v120.471h-120.471v-120.471zM30.117 449.882h60.236v-60.236h-60.236v60.236zM0 178.824h120.471v120.471h-120.471v-120.471zM30.117 269.177h60.236v-60.236h-60.236v60.236zM0-1.882h120.471v120.471h-120.471v-120.471zM30.117 88.471h60.236v-60.236h-60.236v60.236z" unicode=""/><glyph d="M0 269.177h210.823v210.823h-210.823v-210.823zM30.117 449.882h150.588v-150.588h-150.588v150.588zM301.176 480v-210.823h210.824v210.823h-210.823zM481.882 299.294h-150.588v150.588h150.588v-150.588zM0-32h210.823v210.823h-210.823v-210.823zM30.117 148.706h150.588v-150.588h-150.588v150.588zM301.176-32h210.824v210.823h-210.823v-210.823zM331.294 148.706h150.588v-150.588h-150.588v150.588z" unicode=""/><glyph d="M210.823 359.529h30.118v-60.236h-30.118v30.118h-60.236v-240.941h30.118v-30.118h-90.353v30.118h30.117v240.941h-60.236v-30.118h-30.117v60.236h180.706zM451.764 359.529h-180.706v-60.236h30.118v30.118h60.236v-240.941h-30.118v-30.118h90.353v30.118h-30.118v240.941h60.236v-30.118h30.118v60.236h-30.118z" unicode=""/><glyph d="M512-1.882v-30.118h-512v30.118h512zM240.911 428.559v-340.088h30.118v340.149l109.839-109.839 21.293 21.293-146.161 146.161-146.191-146.161 21.293-21.293 109.809 109.779z" unicode=""/><glyph d="M451.764 449.882v-30.118h-30.118v-194.53c0-91.317-74.3-165.647-165.647-165.647s-165.647 74.33-165.647 165.647v194.53h-30.117v30.118h90.353v-30.118h-30.118v-194.53c0-74.722 60.808-135.529 135.529-135.529s135.529 60.808 135.529 135.53v194.53h-30.118v30.118h90.353zM60.236-1.882h391.529v30.118h-391.529v-30.118z" unicode=""/><glyph d="M512 389.647h-331.294v-90.353h-86.528l-35.84-120.47h-58.338v-149.896h60.295c0-0.241-0.060-0.452-0.060-0.692 0-33.22 27.016-60.236 60.236-60.236s60.236 27.015 60.236 60.236c0 0.241-0.060 0.452-0.060 0.692h150.739c-0.030-0.241-0.091-0.452-0.091-0.692 0-33.22 27.015-60.236 60.236-60.236s60.236 27.015 60.236 60.236c0 0.241-0.060 0.452-0.060 0.692h60.296v360.719zM116.645 269.177h64.060v-90.353h-90.956l26.895 90.353zM120.471-1.882c-16.595 0-30.117 13.523-30.117 30.118s13.523 30.118 30.118 30.118 30.118-13.523 30.118-30.118-13.523-30.118-30.118-30.118zM391.529-1.882c-16.595 0-30.118 13.523-30.118 30.118s13.523 30.118 30.118 30.118 30.118-13.523 30.118-30.118-13.523-30.118-30.118-30.118zM481.882 59.046h-38.882c-10.541 17.529-29.546 29.425-51.471 29.425s-40.93-11.897-51.471-29.425h-168.117c-10.541 17.529-29.546 29.425-51.471 29.425s-40.93-11.897-51.471-29.425h-38.882v89.66h180.706v210.823h271.059v-300.484z" unicode=""/><glyph d="M271.059 419.012v30.87h45.176v30.118h-120.471v-30.118h45.177v-30.87c-117.519-7.83-210.823-105.652-210.823-225.13 0-124.567 101.316-225.882 225.882-225.882s225.882 101.316 225.882 225.882c0 119.476-93.305 217.299-210.824 225.13zM256-1.882c-107.942 0-195.764 87.823-195.764 195.764s87.823 195.764 195.764 195.764 195.764-87.823 195.764-195.764-87.823-195.764-195.764-195.764zM271.059 208.941h120.471v-30.118h-150.588v120.471h30.117v-90.353z" unicode=""/><glyph d="M286.118 449.882v-15.059c0-16.625-13.523-30.118-30.118-30.118s-30.118 13.493-30.118 30.118v15.059h-105.412v-451.764h105.412v15.059c0 16.625 13.523 30.118 30.118 30.118s30.118-13.493 30.118-30.118v-15.059h105.412v451.764h-105.412zM197.662 419.764c6.716-25.932 30.328-45.177 58.338-45.177s51.621 19.245 58.338 45.177h47.074v-180.706h-210.823v180.706h47.074zM314.338 28.236c-6.686 25.932-30.298 45.176-58.338 45.176s-51.621-19.245-58.338-45.176h-47.074v180.706h210.824v-180.706h-47.074z" unicode=""/><glyph d="M462.848 187.106c2.5-6.114 3.976-14.035 3.976-24.305 0-15.842-7.228-29.244-18.703-37.135 4.156-7.048 6.144-15.089 6.144-23.13 0-16.926-9.427-31.353-23.642-38.791 2.409-5.662 3.825-12.649 3.885-21.233 0.060-13.523-3.885-24.396-11.776-32.316-8.313-8.342-20.089-12.589-34.966-12.589h-169.412c-22.708 0-38.34 12.168-49.785 21.082-6.596 5.12-12.83 9.999-17.167 9.999h-63.308c-8.313 0-15.059 6.747-15.059 15.059s6.746 15.059 15.059 15.059h63.308c14.667 0 25.811-8.674 35.66-16.324 9.728-7.56 18.914-14.728 31.292-14.728h169.412c6.385 0 11.234 1.295 13.613 3.704 2.048 2.048 3.072 5.723 3.042 10.902-0.091 13.161-2.771 15.993-30.931 15.993h-3.192c-8.313 0-15.059 6.747-15.059 15.059s6.747 15.059 15.059 15.059h37.888c9.246 0 15.962 5.933 15.962 14.095 0 13.553-13.523 15.571-21.594 15.571h-22.588c-8.313 0-15.059 6.747-15.059 15.059s6.747 15.059 15.059 15.059h43.279c9.969 0 13.493 7.529 13.493 14.577 0 14.818 0 14.818-13.221 15.209-1.536 0.030-3.132 0.151-4.699 0.211h-32.406c-8.313 0-15.059 6.747-15.059 15.059s6.747 15.059 15.059 15.059h29.575c0.211 0 0.392 0.12 0.603 0.12h19.004c8.885 0 16.143 6.837 16.143 15.209s-7.228 15.209-16.143 15.209h-134.114c-4.488 0-8.734 1.988-11.596 5.452-2.861 3.464-4.036 8.012-3.192 12.409l15.661 82.341c1.868 8.222 7.168 31.533 0.994 41.863-1.596 2.68-5.481 5.542-10.24 5.542 0 0 0 0 0 0-5.903 0-11.957-4.729-17.046-13.252l-97.612-157.636c-2.74-4.428-7.589-7.138-12.8-7.138h-77.372c-8.313 0-15.059 6.747-15.059 15.059s6.746 15.059 15.059 15.059h68.999l93.004 150.287c14.336 24.094 32.979 27.738 42.767 27.738 0 0 0 0 0.030 0 14.607 0 28.762-7.951 36.081-20.209 10.963-18.341 7.168-43.52 2.62-63.428l-12.137-63.97h115.923c25.51 0 46.26-20.329 46.26-45.327 0.030-14.998-7.469-28.341-18.974-36.593z" unicode=""/><glyph d="M438.754 193.852c0-8.313-6.747-15.059-15.059-15.059h-69l-93.003-150.287c-14.366-24.094-32.979-27.738-42.767-27.738 0 0-0.030 0-0.030 0-14.607 0-28.762 7.951-36.111 20.209-10.963 18.372-7.168 43.55-2.62 63.428l12.137 63.97h-115.923c-25.51 0-46.23 20.329-46.23 45.327 0 16.505 9.035 30.991 22.528 38.912-4.608 6.294-7.529 13.703-7.529 21.956 0 15.842 7.228 29.244 18.703 37.135-4.156 7.077-6.144 15.119-6.144 23.161 0 17.317 9.878 31.985 24.606 39.303-4.005 7.71-4.879 15.541-4.879 20.781 0 28.070 17.499 44.815 46.773 44.815h169.412c22.709 0 38.37-12.168 49.784-21.082 6.596-5.12 12.83-9.999 17.137-9.999h63.337c8.313 0 15.059-6.746 15.059-15.059s-6.747-15.059-15.059-15.059h-63.337c-14.668 0-25.811 8.674-35.659 16.324-9.698 7.62-18.884 14.757-31.262 14.757h-169.412c-14.065 0-16.655-4.969-16.655-14.697 0-4.759 0-15.872 30.931-15.872h3.162c8.313 0 15.059-6.746 15.059-15.059s-6.746-15.059-15.059-15.059h-37.888c-9.246 0-15.932-5.933-15.932-14.095 0-13.553 13.523-15.571 21.594-15.571h22.588c8.313 0 15.059-6.746 15.059-15.059s-6.746-15.059-15.059-15.059h-43.249c-9.939 0-13.493-7.53-13.493-14.577 0-5.060 11.023-13.764 21.233-15.451h29.094c8.313 0 15.059-6.746 15.059-15.059s-6.746-15.059-15.059-15.059h-29.606c-0.211 0-0.391-0.12-0.603-0.12h-19.004c-8.885 0-16.113-6.837-16.113-15.209s7.228-15.209 16.113-15.209h134.114c4.488 0 8.734-1.988 11.595-5.452 2.861-3.464 4.036-8.012 3.192-12.409l-15.661-82.341c-1.868-8.222-7.168-31.503-0.994-41.863 1.596-2.651 5.482-5.541 10.24-5.541 5.903 0 11.957 4.728 17.047 13.252l97.551 157.636c2.74 4.428 7.589 7.138 12.8 7.138h77.372c8.403 0 15.119-6.747 15.119-15.059z" unicode=""/><glyph d="M421.647 419.764v-90.353h-30.118v60.236h-120.471v-361.412h49.483v-30.118h-129.084v30.118h49.483v361.412h-120.471v-60.236h-30.117v90.353h331.294z" unicode=""/><glyph d="M512-1.882v-30.118h-512v30.118h512zM156.702 239.781l126.615-91.136 168.448 188.265v-68.788h30.118v121.525h-121.555v-30.118h71.259l-152.697-170.616-124.356 89.57-131.674-119.146 20.209-22.317 113.634 102.762z" unicode=""/><glyph d="M155.588 214.875l-131.644 119.145 20.179 22.317 113.634-102.791 126.615 91.136 168.448-188.236v68.819h30.118v-121.555h-121.555v30.118h71.259l-152.667 170.617-124.386-89.57zM0-1.882v-30.118h512v30.118h-512z" unicode=""/><glyph d="M320.632 84.074l21.293-21.293-85.925-85.956-85.956 85.956 21.293 21.293 49.604-49.604v113.604h30.118v-113.604l49.574 49.604zM240.941 413.531v-113.604h30.117v113.604l49.574-49.574 21.293 21.293-85.925 85.925-85.956-85.925 21.293-21.293 49.604 49.573zM0 239.059v-30.117h512v30.118h-512z" unicode=""/><glyph d="M66.469 239.059h113.604v-30.117h-113.604l49.574-49.574-21.293-21.293-85.925 85.925 85.956 85.956 21.293-21.293-49.604-49.604zM417.25 309.956l-21.293-21.293 49.574-49.604h-113.604v-30.118h113.604l-49.574-49.574 21.293-21.293 85.925 85.925-85.925 85.956zM240.941-32h30.117v512h-30.118v-512z" unicode=""/><glyph d="M180.706 301.553h30.118v-60.236h-30.118v30.118h-60.236v-240.941h30.118v-30.118h-90.353v30.118h30.117v240.941h-60.236v-30.118h-30.117v60.235h180.706zM481.882 419.764h-301.176v-77.613h30.118v47.495h120.471v-361.412h-30.118v-30.118h90.353v30.118h-30.118v361.412h120.471v-47.495h30.117v77.613h-30.118z" unicode=""/><glyph d="M256 329.412c-58.127 0-105.412-47.285-105.412-105.412s47.285-105.412 105.412-105.412 105.412 47.284 105.412 105.412-47.284 105.412-105.412 105.412zM256 148.706c-41.502 0-75.294 33.792-75.294 75.294s33.792 75.294 75.294 75.294 75.294-33.792 75.294-75.294-33.792-75.294-75.294-75.294zM271.059 359.529h-30.118v90.353h30.118v-90.353zM240.941 88.471h30.117v-90.353h-30.118v90.353zM481.882 239.059v-30.117h-90.353v30.118h90.353zM120.471 208.941h-90.353v30.118h90.353v-30.118zM362.496 309.203l-21.293 21.293 63.88 63.88 21.293-21.293-63.88-63.88zM149.504 138.797l21.293-21.293-63.88-63.88-21.293 21.293 63.88 63.88zM362.496 138.797l63.88-63.88-21.293-21.293-63.88 63.88 21.293 21.293zM149.504 309.203l-63.88 63.88 21.293 21.293 63.88-63.88-21.293-21.293z" unicode=""/><glyph d="M251.603 370.191l146.161-146.191-146.191-146.191-21.293 21.293 109.839 109.839h-340.118v30.118h340.089l-109.809 109.809 21.323 21.324zM481.882 480v-512h30.118v512h-30.118z" unicode=""/><glyph d="M512 208.911h-340.089l109.809-109.809-21.293-21.293-146.191 146.191 146.191 146.191 21.293-21.293-109.869-109.869h340.149v-30.118zM0-32h30.117v512h-30.117v-512z" unicode=""/><glyph d="M451.764 449.401c0-49.815-40.538-90.353-90.353-90.353s-90.353 40.538-90.353 90.353h-30.118c0-49.815-40.538-90.353-90.353-90.353s-90.353 40.538-90.353 90.353h-30.117v-206.216c0-162.786 210.884-240.941 219.889-244.164l5-1.837 5.030 1.747c9.036 3.102 221.846 77.914 221.846 245.097v205.372h-30.118zM60.236 243.215v126.614c22.076-25.058 54.422-40.9 90.353-40.9 36.020 0 68.246 16.053 90.353 41.231v-334.728c-49.965 22.498-180.706 92.371-180.706 207.781zM451.764 244.028c0-117.308-129.295-185.615-180.706-208.173v334.336c22.106-25.178 54.332-41.231 90.353-41.231 35.93 0 68.276 15.812 90.353 40.87v-125.802z" unicode=""/><glyph d="M30.117 480v-512h451.764v512h-451.764zM451.764-1.882h-391.529v451.764h60.236v-32.889c-17.499-6.234-30.118-22.799-30.118-42.406 0-24.907 20.269-45.176 45.177-45.176s45.177 20.269 45.177 45.176c0 19.607-12.619 36.172-30.118 42.406v32.889h90.353v-32.889c-17.499-6.234-30.118-22.799-30.118-42.406 0-24.907 20.269-45.176 45.176-45.176s45.176 20.269 45.176 45.176c0 19.607-12.62 36.172-30.118 42.406v32.889h90.353v-32.889c-17.498-6.234-30.118-22.799-30.118-42.406 0-24.907 20.269-45.176 45.176-45.176s45.176 20.269 45.176 45.176c0 19.607-12.62 36.172-30.118 42.406v32.889h60.236v-451.764zM150.588 374.588c0-8.282-6.776-15.059-15.059-15.059s-15.059 6.776-15.059 15.059 6.776 15.059 15.059 15.059 15.059-6.776 15.059-15.059zM271.059 374.588c0-8.282-6.776-15.059-15.059-15.059s-15.059 6.776-15.059 15.059 6.776 15.059 15.059 15.059 15.059-6.776 15.059-15.059zM391.529 374.588c0-8.282-6.776-15.059-15.059-15.059s-15.059 6.776-15.059 15.059 6.776 15.059 15.059 15.059 15.059-6.776 15.059-15.059z" unicode=""/><glyph d="M512 374.588c0 68.458-131.916 105.412-256 105.412s-256-36.954-256-105.412c0-4.487 0.723-9.577 2.409-15.059h-2.409v-286.118c0-68.457 131.916-105.412 256-105.412s256 36.954 256 105.412v286.118h-2.409c1.687 5.481 2.409 10.572 2.409 15.059zM256 449.882c129.295 0 225.882-39.755 225.882-75.294 0-11.987-11.685-25.148-32.918-37.014-42.737-23.974-114.868-38.279-192.964-38.279s-150.227 14.306-192.964 38.279c-21.233 11.867-32.919 25.028-32.919 37.014 0 35.539 96.588 75.294 225.882 75.294zM256-1.882c-129.295 0-225.882 39.755-225.882 75.294v49.182c5.27-4.066 11.053-8.162 18.191-12.137 47.044-26.323 124.687-42.044 207.691-42.044 10.39 0 20.691 0.241 30.81 0.723 71.108 3.343 135.68 18.281 176.851 41.322v0c0 0.030 0.030 0.030 0.030 0.030 7.108 4.005 12.95 8.072 18.191 12.137v-49.212c0-35.539-96.587-75.294-225.882-75.294zM448.964 136.749c-42.767-23.943-114.868-38.25-192.964-38.25-9.758 0-19.456 0.241-28.973 0.663-66.68 3.072-126.585 16.625-163.99 37.557v0c-21.203 11.926-32.919 25.088-32.919 37.075v49.212c5.27-4.066 11.084-8.162 18.221-12.137 47.014-26.323 124.657-42.044 207.661-42.044s160.648 15.721 207.661 42.044c7.138 3.976 12.95 8.072 18.221 12.137v-49.212c0-11.987-11.716-25.148-32.918-37.045zM448.933 237.161c-42.737-23.944-114.839-38.25-192.934-38.25s-150.196 14.306-192.934 38.25c-21.233 11.867-32.949 25.058-32.949 37.045v49.212c5.27-4.096 11.053-8.162 18.191-12.168 47.044-26.353 124.657-42.074 207.691-42.074s160.647 15.721 207.691 42.074c7.138 4.006 12.921 8.072 18.191 12.168v-49.212c0-11.987-11.716-25.178-32.949-37.044z" unicode=""/><glyph d="M220.070 273.332c0 58.609-47.676 106.285-106.285 106.285-58.579 0-106.255-47.676-106.255-106.285 0-58.579 47.676-106.255 106.255-106.255 22.107 0 42.647 6.837 59.663 18.402-37.075-104.508-120.169-116.766-124.476-117.339l3.705-29.877c1.536 0.18 154.353 21.173 167.544 232.628l-0.392 0.030c0.030 0.813 0.241 1.566 0.241 2.41zM113.784 197.165c-41.984 0-76.138 34.154-76.138 76.137s34.154 76.168 76.138 76.168c42.014 0 76.168-34.183 76.168-76.168s-34.154-76.137-76.168-76.137zM503.988 270.923c0.030 0.813 0.241 1.596 0.241 2.409 0 58.609-47.676 106.285-106.255 106.285s-106.255-47.676-106.255-106.285c0-58.579 47.676-106.255 106.255-106.255 22.106 0 42.647 6.837 59.663 18.402-37.045-104.508-120.17-116.766-124.476-117.339l3.704-29.877c1.536 0.18 154.353 21.173 167.544 232.628l-0.421 0.030zM397.974 197.165c-41.984 0-76.137 34.154-76.137 76.137s34.154 76.168 76.137 76.168 76.137-34.183 76.137-76.168-34.154-76.137-76.137-76.137z" unicode=""/><glyph d="M396.62 250.684c-22.106 0-42.676-6.837-59.693-18.432 37.044 104.569 120.2 116.856 124.507 117.399l-3.704 29.877c-1.536-0.181-154.383-21.203-167.544-232.659l0.452-0.030c0-0.813-0.241-1.627-0.241-2.44 0-58.579 47.676-106.255 106.255-106.255s106.255 47.676 106.255 106.255-47.707 106.285-106.285 106.285zM396.62 68.262c-42.014 0-76.137 34.154-76.137 76.137s34.154 76.137 76.137 76.137 76.137-34.154 76.137-76.137-34.154-76.137-76.137-76.137zM112.429 250.684c-22.106 0-42.647-6.837-59.663-18.432 37.044 104.569 120.169 116.856 124.476 117.399l-3.704 29.877c-1.536-0.181-154.353-21.203-167.575-232.659l0.452-0.030c0-0.813-0.241-1.627-0.241-2.44 0-58.579 47.676-106.255 106.255-106.255s106.255 47.676 106.255 106.255-47.646 106.285-106.255 106.285zM112.429 68.262c-42.014 0-76.138 34.154-76.138 76.137s34.153 76.137 76.138 76.137 76.138-34.154 76.138-76.137-34.124-76.137-76.138-76.137z" unicode=""/><glyph d="M431.586 239.059l-56.5 131.825-103.544-294.641-120.923 394.842-71.379-232.026h-79.24v-30.118h101.466l49.092 159.503 118.964-388.608 108.333 308.103 33.852-78.998h100.292v30.118z" unicode=""/><glyph d="M512 299.294h-90.594v54.754l-135.62 125.952h-195.674v-180.706h-90.112v-240.941h90.353v-93.364h331.294v93.365h90.353v240.941zM300.935 424.825l70.325-65.295h-70.325v65.295zM120.23 449.882h150.588v-120.47h120.471v-30.118h-271.059v150.588zM391.529-4.894h-271.059v150.588h271.059v-150.588zM481.882 88.471h-60.236v87.341h-331.294v-87.341h-60.236v180.706h451.764v-180.706zM331.475 88.471h-180.887v30.118h180.887v-30.118zM271.059 28.236h-120.471v30.118h120.471v-30.118zM90.353 208.941h-30.117v30.118h30.117v-30.118zM150.588 208.941h-30.118v30.118h30.118v-30.118z" unicode=""/><glyph d="M481.882 193.882c0-124.567-101.316-225.882-225.882-225.882s-225.882 101.316-225.882 225.882c0 105.351 74.572 198.144 177.333 220.642l6.445-29.425c-89.028-19.486-153.66-99.9-153.66-191.217 0-107.942 87.823-195.764 195.764-195.764s195.764 87.823 195.764 195.764c0 91.196-64.542 171.611-153.48 191.187l6.476 29.425c102.641-22.619 177.122-115.38 177.122-220.612zM271.059 480h-30.118v-301.176h30.118v301.176z" unicode=""/><glyph d="M90.353 359.529v-151.010c0-82.793 74.33-150.167 165.647-150.167s165.647 67.373 165.647 150.167v151.010h-331.294zM391.529 208.519c0-66.198-60.808-120.049-135.53-120.049s-135.53 53.851-135.53 120.049v120.892h271.059v-120.892zM211.305 389.647h-30.118v90.353h30.118v-90.353zM330.812 389.647h-30.118v90.353h30.118v-90.353zM240.941 58.353h30.117v-90.353h-30.118v90.353zM331.294 239.059h-150.588v30.118h150.588v-30.118zM331.294 178.824h-150.588v30.118h150.588v-30.118z" unicode=""/><glyph d="M451.313 210.658l30.058-2.018c-7.921-118.061-106.918-210.522-225.37-210.522-124.567 0-225.882 101.316-225.882 225.882 0 117.609 91.769 216.546 208.956 225.25l2.228-30.027c-101.526-7.53-181.067-93.275-181.067-195.223 0-107.942 87.823-195.764 195.764-195.764 102.671 0 188.446 80.113 195.313 182.423zM512 254.148v-15.059l-15.089-0.512h-225.34v241.453l15.089-0.030c124.266-0.271 225.34-101.617 225.34-225.852zM481.461 268.695c-6.716 95.473-83.606 172.965-179.772 180.555v-180.555h179.772z" unicode=""/><glyph d="M481.882 449.099h-331.535c-65.686 0-119.115-53.428-119.115-119.115s53.428-119.085 119.115-119.085h90.594v-212.781h30.118v420.864h60.687v-420.864h30.118v420.864h120.019v30.118zM240.941 240.987h-90.594c-49.092 0-88.998 39.906-88.998 88.968 0 49.092 39.906 88.998 88.998 88.998h90.594v-177.965z" unicode=""/><glyph d="M0 480v-512h512v512h-512zM481.882-1.882h-451.764v451.764h451.764v-451.764zM120.471 171.836v-83.365h30.117v83.365c22.227 6.565 38.581 26.925 38.581 51.23s-16.354 44.664-38.581 51.23v85.233h-30.118v-85.233c-22.227-6.566-38.581-26.925-38.581-51.23s16.354-44.695 38.581-51.23zM135.53 246.588c12.981 0 23.522-10.571 23.522-23.522s-10.541-23.522-23.522-23.522-23.522 10.541-23.522 23.522 10.541 23.522 23.522 23.522zM240.941 235.836v-147.365h30.117v147.365c22.227 6.565 38.581 26.925 38.581 51.23s-16.354 44.664-38.581 51.23v21.233h-30.118v-21.233c-22.227-6.565-38.581-26.925-38.581-51.23s16.354-44.695 38.581-51.23zM256 310.588c12.981 0 23.522-10.571 23.522-23.522s-10.541-23.552-23.522-23.552-23.522 10.572-23.522 23.552 10.541 23.522 23.522 23.522zM376.471 75.911c29.575 0 53.639 24.064 53.639 53.639 0 24.335-16.354 44.664-38.581 51.23v178.748h-30.118v-178.748c-22.227-6.565-38.58-26.925-38.58-51.23 0-29.575 24.064-53.639 53.639-53.639zM376.471 153.103c12.981 0 23.522-10.572 23.522-23.522s-10.572-23.522-23.522-23.522-23.522 10.572-23.522 23.522 10.541 23.522 23.522 23.522z" unicode=""/><glyph d="M256.512 481.054l-256.512-97.009v-322.048l256-96.015 256 96.015v322.018l-255.488 97.039zM454.295 373.745l-77.884-29.214-197.482 74.963 77.553 29.334 197.813-75.084zM256 299.385l-198.204 74.331 78.577 29.696 197.3-74.902-77.673-29.124zM30.117 351.909l210.823-79.059v-269.011l-210.823 79.059v269.011zM271.059 3.84v269.011l210.824 79.059v-269.011l-210.823-79.059z" unicode=""/><glyph d="M444.687 345.706l12.68 27.286-216.425 100.472v-297.502c-15.39 13.372-35.238 21.745-57.163 21.745-48.399 0-87.763-39.394-87.763-87.763s39.364-87.763 87.763-87.763 87.763 39.394 87.763 87.763c0 1.596-0.392 3.102-0.482 4.638v311.717l173.628-80.595zM183.778 52.3c-31.804 0-57.645 25.841-57.645 57.645s25.841 57.645 57.645 57.645 57.645-25.841 57.645-57.645-25.871-57.645-57.645-57.645z" unicode=""/><glyph d="M180.706 472.019v-277.745c-15.42 13.433-35.328 21.865-57.344 21.865-48.399 0-87.763-39.394-87.763-87.763s39.364-87.763 87.763-87.763c47.285 0 85.684 37.677 87.431 84.54v0 0.18c0.030 1.024 0.301 1.988 0.301 3.072s-0.241 2.018-0.271 3.042v183.537l271.059-53.037v-140.529c-15.45 13.583-35.478 22.106-57.645 22.106-48.399 0-87.763-39.394-87.763-87.763s39.364-87.763 87.763-87.763c47.736 0 86.498 38.34 87.552 85.805l0.211-0.060v353.461l-331.294 64.813zM123.362 70.731c-31.804 0-57.645 25.841-57.645 57.645s25.841 57.645 57.645 57.645c30.75 0 55.718-24.245 57.344-54.573v-6.114c-1.626-30.358-26.594-54.603-57.344-54.603zM210.823 345.645v89.811l271.059-53.067v-89.75l-271.059 53.007zM424.237-1.882c-31.804 0-57.645 25.841-57.645 57.645s25.841 57.645 57.645 57.645 57.645-25.841 57.645-57.645-25.841-57.645-57.645-57.645z" unicode=""/><glyph d="M256 480c-91.347 0-165.647-74.3-165.647-165.647v-180.706c0-91.347 74.3-165.647 165.647-165.647s165.647 74.3 165.647 165.647v180.706c0 91.347-74.3 165.647-165.647 165.647zM391.529 133.647c0-74.722-60.808-135.53-135.53-135.53s-135.53 60.808-135.53 135.529v180.706c0 74.722 60.808 135.529 135.53 135.529s135.53-60.808 135.53-135.529v-180.706zM256 374.588c-24.907 0-45.177-20.269-45.177-45.176v-60.236c0-24.907 20.269-45.176 45.177-45.176s45.176 20.269 45.176 45.177v60.236c0 24.907-20.269 45.176-45.177 45.176zM271.059 269.177c0-8.313-6.747-15.059-15.059-15.059s-15.059 6.747-15.059 15.059v60.236c0 8.313 6.746 15.059 15.059 15.059s15.059-6.746 15.059-15.059v-60.236z" unicode=""/><glyph d="M256 480c-91.347 0-165.647-74.3-165.647-165.647v-180.706c0-91.347 74.3-165.647 165.647-165.647s165.647 74.3 165.647 165.647v180.706c0 91.347-74.3 165.647-165.647 165.647zM391.529 314.353v-15.059h-120.471v149.052c67.584-7.589 120.471-64.421 120.471-133.994zM240.941 448.346v-149.052h-120.471v15.059c0 69.572 52.886 126.404 120.471 133.993zM256-1.882c-74.722 0-135.53 60.808-135.53 135.53v135.529h271.059v-135.529c0-74.722-60.808-135.529-135.53-135.529z" unicode=""/><glyph d="M322.831 191.563v0l-0.301 0.301c-0.392 0.332-0.663 0.723-1.084 1.024l-0.091-0.12-50.296 38.611v171.882c34.334-6.566 60.236-35.057 60.236-69.15l15.029-1.807 15.089 1.807c0 50.598-39.424 92.22-90.353 99.268v46.622h-30.118v-46.622c-50.929-7.047-90.353-48.67-90.353-99.268 0-28.371 12.679-55.356 34.666-74.481l-0.15-0.151 1.204-0.933c0 0 0 0 0 0v0l54.633-41.984v-171.821c-34.334 6.565-60.236 35.057-60.236 69.15h-30.118c0-50.597 39.424-92.22 90.353-99.268v-46.652h30.118v46.652c50.929 7.048 90.353 48.67 90.353 99.268 0 30.298-14.125 58.398-38.581 77.673zM205.463 281.796c-15.721 13.433-24.756 32.436-24.756 52.315 0 34.093 25.901 62.584 60.236 69.15v-148.721l-35.478 27.256zM271.059 44.74v148.661l33.25-25.57c17.077-13.462 26.986-33.009 26.986-53.94 0-34.093-25.901-62.584-60.236-69.15z" unicode=""/><glyph d="M256 118.588c74.722 0 135.529 60.808 135.529 135.53v90.353c0 69.602-52.887 126.404-120.471 133.994v1.536h-30.118v-1.536c-67.584-7.59-120.471-64.392-120.471-133.994v-90.353c0-74.722 60.807-135.53 135.53-135.53zM180.706 417.988v-58.459h30.118v79.752c9.397 4.488 19.456 7.529 30.118 9.065v-88.817h30.117v88.817c10.661-1.536 20.721-4.548 30.118-9.065v-79.752h30.118v58.459c18.582-19.004 30.118-44.906 30.118-73.517v-15.059h-210.823v15.059c0 28.612 11.535 54.543 30.118 73.517zM150.588 299.294h210.823v-45.176c0-58.127-47.284-105.412-105.412-105.412s-105.412 47.284-105.412 105.412v45.177zM451.764 269.177v-97.883c0-62.253-60.808-112.941-135.529-112.941h-45.176v-90.353h-30.118v90.353h-45.177c-74.722 0-135.53 50.688-135.53 112.941v97.882h30.118v-97.882c0-45.688 47.285-82.823 105.412-82.823h120.47c58.127 0 105.412 37.135 105.412 82.823v97.882h30.118z" unicode=""/><glyph d="M481.882 389.647v-60.236h-451.764v60.236h451.764zM30.117 178.824h451.764v60.236h-451.764v-60.236zM30.117 28.236h451.764v60.236h-451.764v-60.236z" unicode=""/><glyph d="M481.882 419.764v-60.236h-331.294v60.236h331.294zM150.588 208.941h331.294v60.236h-331.294v-60.236zM150.588 58.353h331.294v60.236h-331.294v-60.236zM60.236 419.764c-16.625 0-30.117-13.462-30.117-30.118s13.492-30.118 30.117-30.118 30.118 13.462 30.118 30.118-13.493 30.118-30.117 30.118zM60.236 269.177c-16.625 0-30.117-13.463-30.117-30.118s13.492-30.117 30.117-30.117 30.118 13.462 30.118 30.118-13.493 30.118-30.117 30.118zM60.236 118.588c-16.625 0-30.117-13.462-30.117-30.118s13.492-30.118 30.117-30.118 30.118 13.462 30.118 30.118-13.493 30.118-30.117 30.118z" unicode=""/><glyph d="M316.205 346.338l-147.637 42.707-168.569 0.603v-331.294h161.069l156.491-44.544 164.322 48.339v332.529l-165.677-48.339zM180.706 354.198l120.47-34.846v-269.553l-120.471 34.304v270.095zM30.117 359.529h120.47v-271.571l-120.471 0.512v271.059zM451.764 84.676l-120.471-35.449v270.125l120.471 35.148v-269.824z" unicode=""/><glyph d="M451.764 359.529v-2.078l-0.392 1.747-30.57-6.656c-4.187 54.302-49.212 97.34-104.568 97.34-55.447 0-100.563-43.219-104.629-97.642l-30.9 6.716v0.572h-180.706v-331.294h161.069l156.492-44.544 164.322 48.339v327.5h-30.118zM316.236 419.764c41.532 0 75.294-33.792 75.294-75.294 0-54.392-51.772-126.765-75.294-156.822-23.522 30.058-75.294 102.43-75.294 156.822 0 41.502 33.762 75.294 75.294 75.294zM180.706 328.147l32.557-7.077c12.409-68.337 72.463-144.204 87.913-162.816v-138.601l-120.471 34.304v274.191zM30.117 329.412h120.47v-271.571l-120.471 0.512v271.059zM331.294 19.11v139.173c15.481 18.643 75.685 94.72 87.974 163.117l32.497 7.048v-273.89l-120.471-35.449zM357.135 341.971c0 22.558-18.341 40.9-40.9 40.9s-40.9-18.341-40.9-40.9 18.341-40.93 40.9-40.93 40.9 18.341 40.9 40.93zM305.453 341.971c0 5.964 4.849 10.782 10.782 10.782s10.782-4.849 10.782-10.782-4.849-10.812-10.782-10.812-10.782 4.849-10.782 10.812z" unicode=""/><glyph d="M30.117 208.941c0-66.44 51.532-120.471 114.838-120.471v-30.118c-79.932 0-144.956 67.554-144.956 150.588s65.024 150.588 144.956 150.588h127.367l-49.573 49.574 21.293 21.293 85.956-85.925-85.925-85.956-21.323 21.323 49.604 49.574h-127.397c-63.308 0-114.838-54.031-114.838-120.471zM367.044 359.529v-30.117c63.308 0 114.839-54.031 114.839-120.471s-51.531-120.471-114.839-120.471h-127.397l49.574 49.574-21.293 21.293-85.925-85.925 85.956-85.956 21.293 21.293-49.604 49.604h127.368c79.963 0 144.987 67.554 144.987 150.588s-65.024 150.588-144.956 150.588z" unicode=""/><glyph d="M256 464.941c-91.317 0-165.647-74.3-165.647-165.647 0-131.704 147.968-303.766 154.262-311.055l11.385-13.101 11.385 13.132c6.295 7.259 154.262 179.32 154.262 311.025 0 91.347-74.33 165.647-165.647 165.647zM256 21.76c-34.515 42.887-135.53 177.062-135.53 277.534 0 74.722 60.808 135.529 135.53 135.529s135.529-60.808 135.529-135.529c0-100.382-101.014-234.647-135.53-277.534zM256 385.461c-49.815 0-90.353-40.538-90.353-90.353s40.538-90.353 90.353-90.353 90.353 40.538 90.353 90.353-40.538 90.353-90.353 90.353zM256 234.873c-33.22 0-60.236 27.016-60.236 60.236s27.016 60.236 60.236 60.236 60.236-27.016 60.236-60.236-27.015-60.236-60.236-60.236z" unicode=""/><glyph d="M512 359.529v-30.117h-361.412v30.117h361.412zM90.353 344.471c0-24.908-20.269-45.177-45.176-45.177s-45.176 20.269-45.176 45.177 20.269 45.176 45.176 45.176 45.176-20.269 45.176-45.176zM60.236 344.471c0 8.282-6.746 15.059-15.059 15.059s-15.059-6.776-15.059-15.059 6.746-15.059 15.059-15.059 15.059 6.776 15.059 15.059zM150.588 208.941h361.412v30.118h-361.412v-30.118zM90.353 224c0-24.908-20.269-45.176-45.176-45.176s-45.176 20.269-45.176 45.177 20.269 45.177 45.176 45.177 45.176-20.269 45.176-45.177zM60.236 224c0 8.282-6.746 15.059-15.059 15.059s-15.059-6.776-15.059-15.059 6.746-15.059 15.059-15.059 15.059 6.776 15.059 15.059zM150.588 88.471h361.412v30.118h-361.412v-30.118zM90.353 103.529c0-24.908-20.269-45.176-45.176-45.176s-45.176 20.269-45.176 45.176 20.269 45.176 45.176 45.176 45.176-20.269 45.176-45.176zM60.236 103.529c0 8.283-6.746 15.059-15.059 15.059s-15.059-6.776-15.059-15.059 6.746-15.059 15.059-15.059 15.059 6.776 15.059 15.059z" unicode=""/><glyph d="M256 480c-91.317 0-165.647-78.818-165.647-175.676 0-70.897 29.034-110.532 54.633-145.498 19.185-26.142 35.72-48.731 35.72-80.505v-63.127c0-26.022 20.269-47.195 45.177-47.195h60.236c24.908 0 45.176 21.173 45.176 47.195v64.030c0 31.473 15.571 52.254 35.238 78.577 24.546 32.858 55.115 73.698 55.115 146.523 0 96.858-74.331 175.676-165.647 175.676zM286.118-1.882h-60.236c-8.282 0-15.059 7.65-15.059 17.077v49.182h90.353v-49.182c0-9.427-6.776-17.077-15.059-17.077zM342.408 175.842c-17.679-23.642-35.84-47.978-40.237-81.348h-92.522c-4.578 33.19-22.709 58.036-40.358 82.131-24.004 32.768-48.821 66.65-48.821 127.699 0 80.263 60.808 145.559 135.53 145.559s135.529-65.295 135.529-145.559c0-62.796-24.967-96.196-49.122-128.482z" unicode=""/><glyph d="M358.25 419.343l-171.399-391.108h23.974v-30.118h-90.353v30.118h33.461l171.399 391.108h-24.154v30.118h90.353v-30.118h-33.28z" unicode=""/><glyph d="M325.271 50.041v-30.118h-138.541v30.118h54.212v223.804h-52.706v30.117h82.823v-253.922h54.212zM240.58 358.174c25.54 0 46.14 20.661 46.14 46.14 0 25.51-20.63 46.2-46.14 46.2-25.57 0-46.201-20.691-46.201-46.2 0-25.48 20.66-46.14 46.201-46.14z" unicode=""/><glyph d="M512 239.059c0-66.439-54.031-120.47-120.471-120.47-36.051 0-69.572 16.022-92.582 43.731l-0.060-0.030-0.421 0.542c-0.332 0.421-0.783 0.692-1.144 1.144l0.12 0.091-109.447 134.988c-17.137 19.276-41.743 30.358-67.524 30.358-49.815 0-90.353-40.538-90.353-90.353 0-49.815 40.538-90.353 90.353-90.353 27.558 0 53.278 12.348 70.536 33.882l0.271-0.211 24.606 30.479 23.431-18.914-24.787-30.69-0.301 0.241c-22.98-28.522-57.133-44.906-93.756-44.906-66.439 0-120.471 54.031-120.471 120.471 0 66.44 54.031 120.471 120.471 120.471 33.732 0 65.837-14.366 88.636-39.183l0.241 0.18 1.265-1.566 111.375-137.337c17.257-20.872 42.436-32.918 69.541-32.918 49.815 0 90.353 40.538 90.353 90.353 0 49.815-40.538 90.353-90.353 90.353-25.48 0-49.694-10.902-66.861-29.786l-28.551-35.388-23.431 18.914 28.551 35.388-0.12 0.091c22.889 25.991 55.868 40.9 90.413 40.9 66.44 0 120.47-54.031 120.47-120.47z" unicode=""/><glyph d="M0 389.647v-361.412h512v361.412h-512zM481.882 58.353h-451.764v301.176h451.764v-301.176zM77.162 73.080l-30.117 0.663c0.994 43.068 42.105 79.872 99.659 90.865v9.819c-7.469 7.8-12.8 18.372-16.414 27.798-4.879 3.493-9.096 8.854-12.017 15.541-5.572 12.348-4.608 24.726 1.897 32.166-0.121 2.228-0.18 4.428-0.18 6.536l-0.060 5.541c-0.18 16.173-0.482 42.767 27.98 47.707 5.843 10.21 14.547 18.884 35.508 19.607 33.822 1.054 57.706-11.385 65.807-34.666 2.74-7.981 0.18-14.607-1.686-19.426-1.777-4.578-3.464-8.885-2.47-16.987 0.392-3.222 0.332-6.385 0.090-9.396 5.27-7.138 6.355-17.98 2.47-29.364-2.861-8.222-7.5-14.577-13.071-18.312-3.343-8.644-8.132-18.191-14.667-25.45v-11.354c57.495-11.294 97.22-47.315 98.214-90.594l-30.118-0.692c-0.692 30.75-36.442 57.464-85.022 63.518l-13.191 1.656v51.471l6.024 4.517c3.192 2.409 8.162 9.668 12.499 22.919l4.066 10.361 2.228 19.004c0.422 3.192 0.813 6.234 0.572 8.071-1.868 15.661 1.988 25.6 4.276 31.503 0.15 0.422 0.271 0.692 0.362 0.933-6.325 11.927-26.474 12.439-35.268 12.228-8.343-0.332-8.945-1.506-10.571-4.608-2.048-3.976-6.897-13.312-19.185-14.396-2.771-0.241-3.644-0.813-3.644-0.813-1.235-1.928-1.144-11.053-1.084-17.107l0.030-5.873c0-4.246 0.301-8.794 0.874-13.432l2.108-17.257 3.614-0.632 0.090-7.469c4.638-14.035 10.21-21.715 13.583-24.034l6.476-4.488v-50.808l-13.312-1.566c-48.549-5.692-85.654-33.069-86.347-63.699zM451.764 239.059h-150.588v30.118h150.588v-30.118zM421.647 178.824h-120.471v30.118h120.471v-30.118z" unicode=""/><glyph d="M271.059 359.529h169.412l-108.695 120.471h-211.305v-120.471h120.471v-112.128h-33.882v-279.401h97.882v279.401h-33.882v112.128zM150.588 449.882h167.786l54.363-60.236h-222.148v60.236zM274.824-1.882h-37.647v219.166h37.647v-219.166z" unicode=""/><glyph d="M421.647-1.882h-90.353v180.706h-150.588v-180.706h-90.353v271.059h-30.117v-301.176h391.529v301.176h-30.118v-271.059zM210.823-1.882v150.588h90.353v-150.588h-90.353zM505.856 285.048l-17.829-24.305-232.026 170.466-232.026-170.406-17.829 24.275 249.856 183.476 249.856-183.507z" unicode=""/><glyph d="M310.543 33.325c0-27.046-21.986-49.031-49.062-49.031-27.166 0-49.122 21.986-49.122 49.031 0 27.106 21.956 49.092 49.122 49.092 27.046 0 49.062-21.986 49.062-49.092zM351.413 408.531c-15.42 19.426-43.49 42.587-89.841 42.587-123.422 0-127.85-113.182-127.88-114.327l30.118-0.783c0.090 3.463 3.313 84.992 97.762 84.992 34.334 0 54.964-16.956 66.228-31.172 16.716-21.083 21.082-45.418 18.793-55.206-8.764-37.014-30.449-56.531-53.399-77.192-28.16-25.329-57.224-51.501-57.224-107.159h30.118c0 42.225 20.841 61.019 47.255 84.781 24.214 21.805 51.652 46.501 62.555 92.702 4.488 19.095-2.5 53.007-24.486 80.775z" unicode=""/><glyph d="M481.31 236.499c-5.783 135.319-104.478 243.501-225.31 243.501s-219.528-108.183-225.31-243.501c-17.77-6.054-30.69-22.769-30.69-42.617v-120.471c0-24.907 20.179-45.176 44.996-45.176h45.357v30.118h30.117v150.588h-30.118v30.118h-29.455c6.776 117.519 91.557 210.824 195.102 210.824s188.326-93.305 195.102-210.824h-29.455v-30.118h-30.118v-150.588h30.118v-30.118h45.357c24.817 0 44.996 20.269 44.996 45.176v120.471c0 19.848-12.921 36.563-30.69 42.617zM60.236 58.353h-15.239c-8.192 0-14.878 6.776-14.878 15.059v120.471c0 8.283 6.686 15.059 14.878 15.059h15.239v-150.588zM481.882 73.412c0-8.283-6.686-15.059-14.878-15.059h-15.24v150.588h15.24c8.192 0 14.878-6.776 14.878-15.059v-120.471z" unicode=""/><glyph d="M406.588 103.529c-24.907 0-45.176-20.269-45.176-45.176s20.269-45.176 45.176-45.176 45.176 20.269 45.176 45.176-20.269 45.176-45.176 45.176zM406.588 43.294c-8.283 0-15.059 6.776-15.059 15.059s6.776 15.059 15.059 15.059 15.059-6.776 15.059-15.059-6.776-15.059-15.059-15.059zM512 385.13l-88.034 94.87h-335.842l-88.124-92.973v-193.747h28.19l-28.19-35.298v-189.982h512v188.536l-31.503 36.743h31.503v191.85zM101.044 449.882h309.79l55.838-60.236h-422.701l57.073 60.236zM30.117-1.882v120.471h451.764v-120.471h-451.764zM479.051 148.706h-447.94l35.569 44.574h374.182l38.189-44.574zM30.117 223.397v136.132h451.764v-136.132h-451.764zM406.588 329.412c-24.907 0-45.176-20.269-45.176-45.177 0-24.877 20.269-45.147 45.176-45.147s45.176 20.269 45.176 45.147c0 24.908-20.269 45.177-45.176 45.177zM406.588 269.207c-8.283 0-15.059 6.746-15.059 15.029s6.776 15.059 15.059 15.059 15.059-6.776 15.059-15.059-6.776-15.029-15.059-15.029z" unicode=""/><glyph d="M425.683 389.767h-339.305l-86.377-131.734v-199.8h512v197.843l-86.317 133.692zM102.671 359.65h306.598l58.488-90.594h-424.478l59.392 90.594zM30.117 88.35v150.588h451.764v-150.588h-451.764zM406.588 208.82c-24.907 0-45.176-20.269-45.176-45.176s20.269-45.176 45.176-45.176 45.176 20.269 45.176 45.176-20.269 45.176-45.176 45.176zM406.588 148.586c-8.283 0-15.059 6.776-15.059 15.059s6.776 15.059 15.059 15.059 15.059-6.776 15.059-15.059-6.776-15.059-15.059-15.059z" unicode=""/><glyph d="M236.092 311.010l-1.024-5.964 20.269 2.59c0.12 0 0.632 0.091 0.934 0.12l19.185-2.439-0.933 5.452c32.828 6.084 99.629 21.835 137.788 54.513 14.878 12.709 23.070 29.817 23.070 48.188s-8.192 35.478-23.070 48.219c-28.371 24.335-77.132 24.305-105.502 0-24.516-20.992-40.93-51.983-51.531-79.149-10.601 27.106-27.016 58.007-51.531 78.938-28.34 24.275-77.041 24.245-105.382 0-14.878-12.709-23.070-29.786-23.070-48.098 0-18.312 8.192-35.358 23.070-48.038 38.159-32.587 104.96-48.279 137.728-54.332zM326.385 438.799c8.764 7.5 20.51 11.626 33.159 11.626 12.62 0 24.425-4.126 33.159-11.626 8.101-6.897 12.529-15.902 12.529-25.329 0-9.397-4.428-18.372-12.529-25.299-31.082-26.594-88.214-40.81-119.447-46.923 7.379 26.745 23.582 72.252 53.127 97.551zM117.91 438.588c8.764 7.469 20.51 11.595 33.159 11.595 12.619 0 24.395-4.126 33.13-11.595 29.395-25.088 45.598-70.385 53.007-97.069-31.202 6.053-88.185 20.179-119.296 46.743-8.072 6.867-12.499 15.781-12.499 25.118 0 9.366 4.427 18.312 12.499 25.209zM512 299.294h-512v-120.47h30.117v-210.824h451.764v210.823h30.118v120.471zM210.101 269.177h90.534l32.106-175.978-49.634 20.63-39.183-36.292-33.822 191.639zM30.117 269.177h149.383l10.631-60.236h-160.015v60.236zM451.764-1.882h-391.529v180.706h135.228l28.371-160.918 65.536 60.687 82.884-34.485-24.546 134.716h104.056v-180.706zM481.882 208.941h-139.685l-10.993 60.236h150.679v-60.236z" unicode=""/><glyph d="M271.059 359.891v89.991h-30.118v-89.991c-107.339-3.163-240.941-38.611-240.941-74.903v-212.059c0-24.908 20.269-45.176 45.176-45.176h53.91l60.115 118.392c17.077-3.132 51.591-8.252 95.564-8.252 44.544 0 81.137 5.24 99.027 8.342l57.464-118.483h55.567c24.907 0 45.176 20.269 45.176 45.176v212.059c0 36.292-133.632 71.77-240.941 74.902zM481.882 72.93c0-8.283-6.776-15.059-15.059-15.059h-36.683l-59.512 122.579-11.625-2.56c-0.452-0.091-45.628-9.909-104.267-9.909-58.459 0-99.84 9.728-100.262 9.849l-11.565 2.801-62.284-122.73h-35.449c-8.282 0-15.059 6.776-15.059 15.059v208.263c15.119 13.162 101.797 45.719 210.823 48.519v-0.332h30.117v0.392c108.996-2.831 195.704-35.388 210.823-48.55v-208.324zM150.588 268.574h30.058v-30.118h-30.058v-30.72h-30.118v30.72h-30.118v30.117h30.118v30.72h30.118v-30.72zM376.471 208.339c24.908 0 45.176 20.269 45.176 45.177s-20.269 45.177-45.176 45.177-45.176-20.239-45.176-45.177 20.269-45.177 45.176-45.177zM376.471 268.574c8.283 0 15.059-6.776 15.059-15.059s-6.776-15.059-15.059-15.059-15.059 6.776-15.059 15.059 6.776 15.059 15.059 15.059z" unicode=""/><glyph d="M16.264 480l194.56-277.956v-234.044h90.353v234.044l194.56 277.956h-479.473zM271.059 211.531v-213.413h-30.118v213.413l-166.852 238.351h363.821l-166.852-238.351z" unicode=""/><glyph d="M376.38 480h-195.674v-60.536h30.118v30.419h150.588v-120.47h120.471v-240.941h-120.983v-30.118h151.1v295.695l-135.62 125.952zM391.529 424.825l70.325-65.295h-70.325v65.295zM0 389.647v-421.647h331.294v295.695l-135.62 125.952h-195.674zM210.823 334.471l70.325-65.295h-70.325v65.295zM30.117-1.882v361.412h150.588v-120.471h120.47v-240.941h-271.059z" unicode=""/><glyph d="M291.147 480h-230.912v-512h391.529v352.135l-160.618 159.865zM301.176 427.535l98.575-98.123h-98.575v98.123zM90.353-1.882v451.764h180.706v-150.588h150.588v-301.176h-331.294z" unicode=""/><glyph d="M404.962 353.476l-156.492 90.383c-20.781 11.957-49.694 4.247-61.681-16.565l-180.706-313.012c-12.469-21.564-5.029-49.243 16.564-61.741l95.744-54.935 131.222 0.542 171.911 293.617c12.438 21.564 5.029 49.243-16.565 61.711zM232.298 28.205l-105.954-0.421-88.697 50.868c-7.198 4.187-9.668 13.372-5.511 20.601l82.823 143.481 181.519-104.81-64.18-109.719zM395.445 306.914l-83.757-143.059-181.669 104.9 82.823 143.481c2.68 4.638 7.71 7.53 13.071 7.53 2.65 0 5.18-0.663 7.5-1.988l156.492-90.353c7.198-4.186 9.668-13.402 5.541-20.51zM512 28.236v-30.118h-210.823v30.118h210.823z" unicode=""/><glyph d="M60.236 480v-512h391.529v512h-391.529zM141.403 359.529l-42.406 90.353h314.007l-42.466-90.353h-229.135zM122.308 329.412h118.634v-271.059h-120.531l-30.058-34.786v373.88l31.955-68.036zM134.174 28.236h243.712l25.962-30.118h-295.635l25.962 30.118zM391.71 58.353h-120.651v271.059h118.603l31.985 68.096v-373.911l-29.937 34.756z" unicode=""/><glyph d="M512-1.882v-30.118h-512v30.118h512zM402.191 213.339l-21.293 21.293-109.809-109.809v355.178h-30.118v-355.207l-109.839 109.869-21.323-21.323 146.191-146.161 146.191 146.161z" unicode=""/><glyph d="M501.188 317.094l-84.661 102.671h-145.468v60.236h-30.118v-60.236h-210.823v-210.823h210.823v-240.941h30.118v240.941h145.709l84.42 108.153zM271.059 239.059h-210.823v150.588h342.076l60.265-73.065-60.507-77.523h-131.012z" unicode=""/><glyph d="M271.059 299.294h141.402l58.368 77.192-58.609 73.397h-141.161v30.118h-30.118v-30.118h-180.706v-150.588h180.706v-60.236h-141.161l-58.609-73.397 58.368-77.192h141.402v-120.471h30.118v120.471h180.706v150.588h-180.706v60.235zM90.353 419.764h307.38l34.966-43.791-35.207-46.562h-307.14v90.353zM421.647 118.588h-307.14l-35.208 46.562 34.966 43.791h307.38v-90.353z" unicode=""/></font>
</defs>
</svg>
